Hoşgeldin, Ziyaretçi: Giriş Yap Üye Ol


stats
Adblock'u kapattıysanız tıklayın.
Hoşgeldiniz!
Filmbol'u tercih ettiğiniz için teşekkürler, ancak ablock kullanarak devam edemezsiniz.
Merak etmeyin. Heryerden ardı ardına çıkan reklamlar görmeyeceksiniz :)

Sadece site içi 1 reklam göreceksin ve bu site gezintini etkilemeyecek.
Konuyu Oyla:
  • Derecelendirme: 0/5 - 0 oy
  • 1
  • 2
  • 3
  • 4
  • 5
Karayip Korsanları: 1 (Pirates of the Caribbean: 1) Türkçe Dublaj m720P İndir
#1
Filmin Yayınlanma Tarihi: 2003 

indirme türü


Bulut + Premium

vizyon tarihi


29 Ekim 2003

Boyutlar


1,43

diller


[TR]

altyazilar


Yok [Eklenebilir]

Video Format: Mkv


Matroska (.MKV)

Video Detay


MPEG-4, 843 Kbps, 0,80 GB

imdb puanı


8,0 / 10,0 / 950,000

süre


143 dakika

Ses Kodek: AC3


Audio Coding 3 (AC3)

Ses Detay


640 Kbps, 6 Kanal, 612 Mb

rarsifresi


filmbol.org

Editör Puanı


9,2

Genislik Yukseklik


1280x544

sürüm


x264 | m720P



Film Detayları

Demirci Turner, eksantrik korsan... Pardon! "Kaptan" Jack Sparrow'la, valinin kızını yani Elizabeth'i ve çok önemli kolyesini kurtarmak için bir olurlar. Jack, eski korsan müttefiklerini bu durumdan kurtulabilmek ve mücadele etmek için toplar.

Karayip Korsanları 1: Siyah İncinin Laneti (Pirates of the Caribbean 1: The Curse of the Black Pearl) Filmi İmdb'den 950.000 kişi tarafından oylandı ve 8,0 puan aldı. Bu film için editör puanı 9,2 olarak belirlendi. İyi Seyirler!


Teknik Detaylar

Kod:
[align=center][/align]
General
Complete name                            : Pirates.of.the.Caribbean.Curse.of.the.Black.Pearl.2003.m720P.BLURAY.x264.TR.Filmbol.mkv
Format                                   : Matroska
Format version                           : Version 4 / Version 2
File size                                : 1.43 GiB
Duration                                 : 2 h 23 min
Overall bit rate                         : 1 426 kb/s
Movie name                               : Pirates of the Caribbean 1: Curse of the Black Pearl / m720P / Filmbol.org
Encoded date                             : UTC 2018-08-29 16:28:21
Writing application                      : mkvmerge v15.0.0 ('Duel with the Devil') 64-bit
Writing library                          : libebml v1.3.5 + libmatroska v1.4.7

Video
ID                                       : 1
Format                                   : AVC
Format/Info                              : Advanced Video Codec
Format profile                           : High@L4
Format settings                          : CABAC / 7 Ref Frames
Format settings, CABAC                   : Yes
Format settings, ReFrames                : 7 frames
Codec ID                                 : V_MPEG4/ISO/AVC
Duration                                 : 2 h 13 min
Bit rate                                 : 843 kb/s
Width                                    : 1 280 pixels
Height                                   : 544 pixels
Display aspect ratio                     : 2.35:1
Frame rate mode                          : Constant
Frame rate                               : 23.976 (24000/1001) FPS
Color space                              : YUV
Chroma subsampling                       : 4:2:0
Bit depth                                : 8 bits
Scan type                                : Progressive
Bits/(Pixel*Frame)                       : 0.050
Stream size                              : 806 MiB (55%)
Title                                    : m720P - Filmbol.org
Writing library                          : x264 core 129 r2245 bc13772
Default                                  : Yes
Forced                                   : No

Audio
ID                                       : 2
Format                                   : AC-3
Format/Info                              : Audio Coding 3
Codec ID                                 : A_AC3
Duration                                 : 2 h 23 min
Bit rate mode                            : Constant
Bit rate                                 : 640 kb/s
Channel(s)                               : 6 channels
Channel positions                        : Front: L C R, Side: L R, LFE
Sampling rate                            : 48.0 kHz
Frame rate                               : 31.250 FPS (1536 SPF)
Bit depth                                : 16 bits
Compression mode                         : Lossy
Stream size                              : 658 MiB (45%)
Title                                    : Türkçe - Filmbol.org
Language                                 : Turkish
Service kind                             : Complete Main
Default                                  : Yes
Forced                                   : No




Film Detayları


Karayip Korsanları 1 Siyah İncinin Laneti

Karayip Korsanları 1 Siyah İncinin Laneti

Karayip Korsanları 1 Siyah İncinin Laneti

Karayip Korsanları 1 Siyah İncinin Laneti

Karayip Korsanları 1 Siyah İncinin Laneti


Film Fragmanı


Film Detayları

Mini 720P İndir


Turbobit İle İndir

Mega ile indir

Uptobox ile indir

Cloud Ru ile indir

 
Cevapla
  


Konu ile Alakalı Benzer Konular
Konular Yazar Yorumlar Okunma Son Yorum
Filmin Yayınlanma Tarihi: 2017 Karayip Korsanları :5 (Pirates Of Caribbean :5) Türkçe Dublaj m720P İndir DRMOV 17 1,282 12-09-2019, Saat: 20:59
Son Yorum: 20Huseyn04
Filmin Yayınlanma Tarihi: 2011 Karayip Korsanları :4 (Pirates Of Caribbean :4) Türkçe Dublaj m720P İndir BroserBros 0 1,222 13-09-2018, Saat: 17:27
Son Yorum: BroserBros
Filmin Yayınlanma Tarihi: 2007 Karayip Korsanları :3 (Pirates of Caribbean :3) Türkçe Dublaj m720P İndir BroserBros 0 1,205 11-09-2018, Saat: 16:33
Son Yorum: BroserBros
Filmin Yayınlanma Tarihi: 2006 Karayip Korsanları: 2 (Pirates Of Caribbaen: 2) Türkçe Dublaj m720P İndir BroserBros 0 1,184 04-09-2018, Saat: 20:42
Son Yorum: BroserBros

Hızlı Menü:


Şu anda bu konuyu okuyanlar: 4 Ziyaretçi