Filmbol Forum Film İndir BRRip XviD v Karanlıkta (In Darkness) Türkçe Dublaj Brrip Xvid İndir
Filmbol'da moderatör olmak ister misiniz? Bizimle iletişime geçmek için tıklayın!
Karanlıkta (In Darkness) Türkçe Dublaj Brrip Xvid İndir
BroserBros
Karanlıkta (In Darkness) Türkçe Dublaj Brrip Xvid İndir
1
240
  • Derecelendirme: 0/5 - 0 oy
  • 1
  • 2
  • 3
  • 4
  • 5
Konuyu Okuyanlar:1 Ziyaretçi
Şuan Online!
Filmin Yayınlanma Tarihi: 2018 
Şuan Online!
BroserBros Kurucu Admin
*******
Admin

Vizyon Tarihi


17 Ağustos 2018

imdb puanı


5,8 / 11,000

süre


100 dakika

Editör Puanı


5,7

Video Format: Avi


Audio Video Interleave (.AVI)

Ses Kodek: MP3


MPEG-1 Audio Layer III (MP3)

sürüm


h263 | Brrip Xvid

Boyutlar


0,83



Karanlıkta



Film Detayları

Karanlıkta,istemeden tanık olduğu bir olay sonrası hayatı değişen görme engelli bir piyanist olan Sofia’nın hikayesini anlatıyor. Sofia görme engelli bir piyanisttir. Günün birinde evinin üst katında gerçekleşen bir arbedeyi işitir ve ertesi gün üst komşusu Veronique'in öldüğünü öğrenir. Bu istemsiz tanıklık onu Londra'nın suçlarla dolu yeraltı dünyasına doğru karanlık bir yola götürür. Veronique'in babası Milos Radic, Londra'da siyasi koruma altında yaşayan ve Bosna Savaşı sırasında soykırım eylemleri yapmakla suçlanan bir Sırp işadamı ve savaş suçlusudur. Radic ile iletişime geçerek başladığı cevap arama yolculuğu, Sofia'yı yolsuzluğun, şiddetin ve şantajın gölgelerle dolu yeraltı dünyasına sürükler...
“Game of Thrones” dizisinin Margaery Tyrell'i, Açlık Oyunları'nın Cressida'sı, güzel oyuncu Natalie Dormer’ın başrolünü üstlendiği gizem ve gerilim filmi “Karanlıkta”nın yönetmen koltuğunda Anthony Byrne oturuyor. Kadrosunda Emily Ratajkowski, Belçikalı oyuncu Jan Bijvoet, Deadpool'un nefretini kazanan Ajax'ı Ed Skrein ve 2 Altın Küre adaylığı bulunan Joely Richardson gibi isimlerin yer aldığı filmin senaryosunda yönetmen Byrne ile Natalie Dormer’ın imzası var.

Karanlıkta (In Darkness) Filmi Imdb'den 11,000 kişi tarafından oylandı ve 5,8 puan aldı. Bu film için editör puanı 5,7 olarak belirlendi. İyi Seyirler!


Teknik Detaylar


Kod :
General
Complete name                            : Karanlıkta.2018.BRRip.XviD.TR.Filmbol.avi
Format                                   : AVI
Format/Info                              : Audio Video Interleave
File size                                : 835 MiB
Duration                                 : 1h 41mn
Overall bit rate                         : 1 148 Kbps

Video
ID                                       : 0
Format                                   : MPEG-4 Visual
Format profile                           : Simple@L5
Format settings, BVOP                    : No
Format settings, QPel                    : No
Format settings, GMC                     : No warppoints
Format settings, Matrix                  : Default (H.263)
Codec ID                                 : XVID
Codec ID/Hint                            : XviD
Duration                                 : 1h 41mn
Bit rate                                 : 1 007 Kbps
Width                                    : 720 pixels
Height                                   : 300 pixels
Display aspect ratio                     : 2.40:1
Frame rate                               : 23.976 fps
Color space                              : YUV
Chroma subsampling                       : 4:2:0
Bit depth                                : 8 bits
Scan type                                : Progressive
Compression mode                         : Lossy
Bits/(Pixel*Frame)                       : 0.194
Stream size                              : 732 MiB (88%)
Writing library                          : Lavc57.107.100

Audio
ID                                       : 1
Format                                   : MPEG Audio
Format version                           : Version 1
Format profile                           : Layer 3
Mode                                     : Joint stereo
Mode extension                           : MS Stereo
Codec ID                                 : 55
Codec ID/Hint                            : MP3
Duration                                 : 1h 41mn
Bit rate mode                            : Constant
Bit rate                                 : 128 Kbps
Channel(s)                               : 2 channels
Sampling rate                            : 48.0 KHz
Compression mode                         : Lossy
Stream size                              : 93.1 MiB (11%)
Alignment                                : Aligned on interleaves
Interleave, duration                     : 24 ms (0.58 video frame)

Film Detayları


Karanlıkta

Karanlıkta

Karanlıkta


Film Fragmanı


Film Detayları

Brrip İndir



Uptobox ile indir

1Fichier ile indir

1Fichier'den İndiremiyor musun? Tıklayın!


Mega ile indir

MediaFire ile indir

Şuan Offine!
Şuan Offine!
komador06 Süper Üye
***
Super Üye

  • Konular0
  • Mesajlar28
  • Rep puanı 0
teşekkürler..


Konu ile Alakalı Benzer Konular
Konular Yazar Yorumlar Okunma Son Yorum
Filmin Yayınlanma Tarihi: 2020
Deathstroke Şövalyeler ve Ejderhalar (Deathstroke Knights & Dragons: The Movie) - 2020 - TR - BRRip XviD BroserBros 0 19 , Saat: 18:30
Son Yorum: BroserBros
Filmin Yayınlanma Tarihi: 2019
15 Dakika Savaş (L'intervention) - 2019 - TR - BRRip XviD BroserBros 0 20 , Saat: 17:42
Son Yorum: BroserBros
Filmin Yayınlanma Tarihi: 2020
Sürprizli Gece (The Sleepover) - 2020 - TR - BRRip XviD BroserBros 0 22 , Saat: 16:18
Son Yorum: BroserBros
Filmin Yayınlanma Tarihi: 2020
Feride (Feride) - 2020 - TR - BRRip XviD BroserBros 0 36 22-11-2020, Saat: 17:58
Son Yorum: BroserBros
Filmin Yayınlanma Tarihi: 2019
Gel Babacığına (Come to Daddy) - 2019 - TR - BRRip XviD BroserBros 0 32 22-11-2020, Saat: 17:43
Son Yorum: BroserBros

Hızlı Menü: