Filmbol Forum Film İndir 1080P v Karanlıkta (In Darkness) Türkçe Dublaj BLURAY 1080P İndir
Mega linklerinin şikayet edilmemesi için global erişime kapatıp sadece yorum yapanlara açıyoruz. Bu linkleri gizleme işlemini mecburen yapıyoruz ve yorum yapmanızın siteye değil size faydası vardır. Teşekürler yazmayı çok görüp, Random/Spam mesajlar atarak Mega linklerini açmaya çalışan kullanıcılara önce süresiz ban, devam ederse IP ban atacağız.
Filmbol'da moderatör olmak ister misiniz? Bizimle iletişime geçmek için tıklayın!
Karanlıkta (In Darkness) Türkçe Dublaj BLURAY 1080P İndir
BroserBros
Karanlıkta (In Darkness) Türkçe Dublaj BLURAY 1080P İndir
3
372
  • Derecelendirme: 0/5 - 0 oy
  • 1
  • 2
  • 3
  • 4
  • 5
Konuyu Okuyanlar:1 Ziyaretçi
Şuan Online!
Filmin Yayınlanma Tarihi: 2018 
WWW
Şuan Online!
BroserBros Kurucu Admin
*******
Admin








Karanlıkta




Teknik Detaylar


Kod :
General
Complete name                            : Karanlıkta.2018.1080p.BLURAY.x264.TR.Filmbol.mkv
Format                                   : Matroska
Format version                           : Version 4 / Version 2
File size                                : 1.66 GiB
Duration                                 : 1h 41mn
Overall bit rate                         : 2 343 Kbps
Movie name                               : Karanlıkta (2018) - Filmbol.org
Encoded date                             : UTC 2019-12-21 12:49:17
Writing application                      : mkvmerge v35.0.0 ('All The Love In The World') 64-bit
Writing library                          : libebml v1.3.9 + libmatroska v1.5.2

Video
ID                                       : 1
Format                                   : AVC
Format/Info                              : Advanced Video Codec
Format profile                           : [email protected]
Format settings, CABAC                   : Yes
Format settings, ReFrames                : 4 frames
Codec ID                                 : V_MPEG4/ISO/AVC
Duration                                 : 1h 41mn
Bit rate                                 : 2 150 Kbps
Width                                    : 1 920 pixels
Height                                   : 800 pixels
Display aspect ratio                     : 2.40:1
Frame rate mode                          : Constant
Frame rate                               : 23.976 (24000/1001) fps
Color space                              : YUV
Chroma subsampling                       : 4:2:0
Bit depth                                : 8 bits
Scan type                                : Progressive
Bits/(Pixel*Frame)                       : 0.058
Stream size                              : 1.53 GiB (92%)
Title                                    : 1080P - Filmbol.org
Writing library                          : x264 core 155
Default                                  : Yes
Forced                                   : No

Audio
ID                                       : 2
Format                                   : AC-3
Format/Info                              : Audio Coding 3
Mode extension                           : CM (complete main)
Format settings, Endianness              : Big
Codec ID                                 : A_AC3
Duration                                 : 1h 41mn
Bit rate mode                            : Constant
Bit rate                                 : 192 Kbps
Channel(s)                               : 2 channels
Channel positions                        : Front: L R
Sampling rate                            : 48.0 KHz
Frame rate                               : 31.250 fps (1536 spf)
Compression mode                         : Lossy
Stream size                              : 140 MiB (8%)
Title                                    : Türkçe - Filmbol.org
Language                                 : Turkish
Default                                  : Yes
Forced                                   : No

Film Detayları


Karanlıkta

Karanlıkta

Karanlıkta


Film Fragmanı


Film Detayları

Mini 1080P İndir



Uptobox ile indir

1Fichier ile indir

1Fichier'den İndiremiyor musun? Tıklayın!


Mega linki şuan da gizli. Kullanıma açmak için konuya yorum yapın ve ardından sayfayı yenileyin.

Mega


MediaFire ile indir

Şuan Offine!
Şuan Offine!
Beratkahreman Yeni Üye
*
Üye

  • Konular0
  • Mesajlar4
  • Rep puanı 0
Şifresi ne dosyaların
Şuan Online!
Şuan Online!
BroserBros Kurucu Admin
*******
Admin

Bu filmin rar şifresi bulunmamakta. Daha önceki dosyalar için filmbol.org Filmbol.org yada BroserBros olabilir.
Şuan Offine!
Şuan Offine!
kira2327 Yeni Üye
*
Üye

  • Konular0
  • Mesajlar3
  • Rep puanı 0
teşekkürler


Konu ile Alakalı Benzer Konular
Konular Yazar Yorumlar Okunma Son Yorum
  Uzaydan Gelen Renk (Color Out of Space) - 2019 - TR+ORG - 1080P | tt5073642 TheSteeL 0 28 , Saat: 21:01
Son Yorum: TheSteeL
Filmin Yayınlanma Tarihi: 2020
I Care a Lot (I Care a Lot) - 2020 - TR+ORG - 1080P | tt9893250 TheSteeL 0 25 , Saat: 20:52
Son Yorum: TheSteeL
Filmin Yayınlanma Tarihi: 2019
Silahlar Fora (Guns Akimbo) - 2019 - TR+ORG - 1080P | tt6902676 TheSteeL 0 51 06-03-2021, Saat: 22:06
Son Yorum: TheSteeL
  İmkansız Canavarlar (Impossible Monsters) - 2019 - TR+ORG - 1080P | tt4328094 TheSteeL 0 52 06-03-2021, Saat: 21:54
Son Yorum: TheSteeL
Filmin Yayınlanma Tarihi: 2017
Ruhlar Evi (Ghost House) - 2017 - TR+ORG - 1080P | tt4365566 TheSteeL 1 113 06-03-2021, Saat: 20:23
Son Yorum: ahmettuncr

Hızlı Menü: