Filmbol Forum Film İndir 3D v Karanlıklar Ülkesi: Kan Savaşları (Underworld: Blood Wars) - 2016 - TR+ORG - 3D
Moderatör Alımları Başladı! Başvuru yapmak için tıklayın.
Filmbol Premium'da %50'e varan indirim fırsatı!
Karanlıklar Ülkesi: Kan Savaşları (Underworld: Blood Wars) - 2016 - TR+ORG - 3D
BroserBros
Karanlıklar Ülkesi: Kan Savaşları (Underworld: Blood Wars) - 2016 - TR+ORG - 3D
0
158
  • Derecelendirme: 0/5 - 0 oy
  • 1
  • 2
  • 3
  • 4
  • 5
Konuyu Okuyanlar:1 Ziyaretçi
Şuan Offine!
Filmin Yayınlanma Tarihi: 2016 
Şuan Offine!
BroserBros Kurucu Admin
*******
Admin

Vizyon Tarihi


02 Aralık 2016

imdb puanı


5,8 / 70,000

süre


91 dakika

Editör Puanı


6,3 / 10

Video Format: Mkv


Matroska (.MKV)

Ses Kodek: AC3


Audio Coding 3 (AC3)

sürüm


x264 | 3D | BluRay

Boyutlar


1,83 GB



 Karanlıklar Ülkesi: Kan Savaşları



Selene çok güçlü bir Lycan olmasına rağmen, kendi ırkı tarafından ihaneti uğrar ve serinin bu filmine Selene hem vampirlere hemde Lycanlara karşı savaşmak zorundadır. David Selene tarafında yer alsa da Selenenin savaşı kazanabilmek için büyük fedakarlıklar yapması gerekmektedir...

Karanlıklar Ülkesi: Kan Savaşları (2016) (Underworld: Blood Wars) Filmi Imdb'den 70,000 kişi tarafından oylandı ve 5,8 puan aldı. Bu film için editör puanı 6,3 olarak belirlendi. İyi Seyirler!

Teknik Detaylar

Kod :
General
Unique ID                                : 88582884982918379356882581399336871488 (0x42A4716D5AFCD24DB109DDC2ECC76640)
Complete name                            : /root/Desktop/6/Karanlıklar.Ülkesi.Kan.Savaşları.2016.3D.HSBS.BluRay.x264.TR.ENG.Filmbol.mkv
Format                                  : Matroska
Format version                          : Version 4 / Version 2
File size                                : 1.83 GiB
Duration                                : 1h 31mn
Overall bit rate                        : 2 854 Kbps
Movie name                              : Karanlıklar Ülkesi: Kan Savaşları - Underworld Blood Wars - 2016 | Filmbol.org
Encoded date                            : UTC 2020-05-15 12:16:23
Writing application                      : mkvmerge v8.8.0 ('Wind at my back') 64bit
Writing library                          : libebml v1.3.3 + libmatroska v1.4.4

Video
ID                                      : 1
Format                                  : AVC
Format/Info                              : Advanced Video Codec
Format profile                          : High@L4.1
Format settings, CABAC                  : Yes
Format settings, ReFrames                : 4 frames
Codec ID                                : V_MPEG4/ISO/AVC
Duration                                : 1h 31mn
Bit rate                                : 2 050 Kbps
Width                                    : 1 920 pixels
Height                                  : 800 pixels
Display aspect ratio                    : 2.40:1
Frame rate mode                          : Constant
Frame rate                              : 23.976 (24000/1001) fps
Color space                              : YUV
Chroma subsampling                      : 4:2:0
Bit depth                                : 8 bits
Scan type                                : Progressive
Bits/(Pixel*Frame)                      : 0.056
Stream size                              : 1.31 GiB (72%)
Title                                    : 3D - Filmbol.org
Writing library                          : x264 core 148
Encoding settings                        : cabac=1 / ref=4 / deblock=1:-1:-1 / analyse=0x3:0x133 / me=umh / subme=9 / psy=1 / psy_rd=1.00:0.15 / mixed_ref=1 / me_range=24 / chroma_me=1 / trellis=2 / 8x8dct=1 / cqm=0 / deadzone=21,11 / fast_pskip=0 / chroma_qp_offset=-3 / threads=12 / lookahead_threads=1 / sliced_threads=0 / nr=0 / decimate=1 / interlaced=0 / bluray_compat=0 / constrained_intra=0 / bframes=3 / b_pyramid=2 / b_adapt=2 / b_bias=0 / direct=3 / weightb=1 / open_gop=0 / weightp=2 / keyint=250 / keyint_min=23 / scenecut=40 / intra_refresh=0 / rc_lookahead=60 / rc=2pass / mbtree=1 / bitrate=2050 / ratetol=1.0 / qcomp=0.60 / qpmin=0 / qpmax=69 / qpstep=4 / cplxblur=20.0 / qblur=0.5 / vbv_maxrate=31250 / vbv_bufsize=31250 / nal_hrd=none / filler=0 / ip_ratio=1.40 / aq=1:1.00
Default                                  : Yes
Forced                                  : No

Audio #1
ID                                      : 2
Format                                  : AC-3
Format/Info                              : Audio Coding 3
Mode extension                          : CM (complete main)
Format settings, Endianness              : Big
Codec ID                                : A_AC3
Duration                                : 1h 31mn
Bit rate mode                            : Constant
Bit rate                                : 640 Kbps
Channel(s)                              : 6 channels
Channel positions                        : Front: L C R, Side: L R, LFE
Sampling rate                            : 48.0 KHz
Frame rate                              : 31.250 fps (1536 spf)
Compression mode                        : Lossy
Stream size                              : 419 MiB (22%)
Title                                    : Türkçe - Filmbol.org
Language                                : Turkish
Default                                  : Yes
Forced                                  : Yes

Audio #2
ID                                      : 3
Format                                  : AAC
Format/Info                              : Advanced Audio Codec
Format profile                          : LC
Codec ID                                : A_AAC
Duration                                : 1h 31mn
Bit rate                                : 149 Kbps
Channel(s)                              : 2 channels
Channel positions                        : Front: L R
Sampling rate                            : 48.0 KHz
Frame rate                              : 46.875 fps (1024 spf)
Compression mode                        : Lossy
Stream size                              : 97.8 MiB (5%)
Title                                    : İngilizce - Filmbol.org
Language                                : English
Default                                  : No
Forced                                  : No

Text
ID                                      : 4
Format                                  : PGS
Muxing mode                              : zlib
Codec ID                                : S_HDMV/PGS
Codec ID/Info                            : Picture based subtitle format used on BDs/HD-DVDs
Duration                                : 1h 30mn
Bit rate                                : 12.0 Kbps
Count of elements                        : 2108
Stream size                              : 7.79 MiB (0%)
Title                                    : Türkçe Altyazı - Filmbol.org
Default                                  : Yes
Forced                                  : No

Film Detayları


 Karanlıklar Ülkesi: Kan Savaşları

 Karanlıklar Ülkesi: Kan Savaşları

 Karanlıklar Ülkesi: Kan Savaşları


Film Fragmanı


Film Detayları

Uptobox ile indir

1Fichier ile indir

1Fichier'den İndiremiyor musun? Tıklayın!


Mega ile indir

Bunun için üzgünüz ancak, bu linke sadece premium üyeler erişebilir.

Filmbol Cloud



Konu ile Alakalı Benzer Konular
Konular Yazar Yorumlar Okunma Son Yorum
Filmin Yayınlanma Tarihi: 2013
Karlar Ülkesi (Frozen) - 2013 - TR+ORG - 3D BroserBros 0 200 12-06-2020, Saat: 20:25
Son Yorum: BroserBros
Filmin Yayınlanma Tarihi: 2016
Moana (Moana) - 2016 - TR+ORG - 3D BroserBros 0 214 19-05-2020, Saat: 10:47
Son Yorum: BroserBros
Filmin Yayınlanma Tarihi: 2016
Fantastik Canavarlar Nelerdir, Nerede Bulunurlar? (Fantastic Beasts and Where to Find Them) - 2016 - TR+ORG - 3D BroserBros 0 196 19-05-2020, Saat: 10:28
Son Yorum: BroserBros
Filmin Yayınlanma Tarihi: 2016
Assassin's Creed (Suikastçinin İnancı) - 2016 - TR+ORG - 3D BroserBros 0 254 16-05-2020, Saat: 22:51
Son Yorum: BroserBros
Filmin Yayınlanma Tarihi: 2016
Uzay Yolcuları (Passengers) - 2016 - TR+ORG - 3D BroserBros 0 129 13-05-2020, Saat: 17:20
Son Yorum: BroserBros

Hızlı Menü: