Filmbol Forum Film İndir BRRip XviD v Karanlık Zihinler (The Darkest Minds) Türkçe Dublaj Brrip Xvid İndir
Filmbol'da moderatör olmak ister misiniz? Bizimle iletişime geçmek için tıklayın!
Karanlık Zihinler (The Darkest Minds) Türkçe Dublaj Brrip Xvid İndir
BroserBros
Karanlık Zihinler (The Darkest Minds) Türkçe Dublaj Brrip Xvid İndir
0
208
  • Derecelendirme: 0/5 - 0 oy
  • 1
  • 2
  • 3
  • 4
  • 5
Konuyu Okuyanlar:1 Ziyaretçi
Şuan Online!
Filmin Yayınlanma Tarihi: 2018 
Şuan Online!
BroserBros Kurucu Admin
*******
Admin

Vizyon Tarihi


03 Ağustos 2018

imdb puanı


5,7 / 25,000

süre


104 dakika

Editör Puanı


6,0

Video Format: Avi


Audio Video Interleave (.AVI)

Ses Kodek: MP3


MPEG-1 Audio Layer III (MP3)

sürüm


h263 | Brrip Xvid

Boyutlar


1,84



Karanlık Zihinler



Film Detayları

Karanlık Zihinler, milyonlarca insanın ölümüne neden olan salgından kurtulmayı başaran bir grup gencin hikayesini konu ediyor. Amerika'daki bütün gençleri öldüren korkunç vebada hayatta kalmayı başaran Ruby Dale, özel güçlere sahiptir. Kendisi gibi diğer hayatta kalanlar da değişik güçlere sahiplerdir ve sadece renklerle tanımlanırlar; yeşiller (ileri zeka), maviler (telekinezi), sarılar (elektriği kontrol edebilme), turuncular (zihin kontrol) ve kırmızılar (ateşi kontrol edebilme). Ruby ise "turuncu" türünün çok güçlü bir üyesidir. Ruby ve arkadaşları, gönderildikleri korkutucu devlet tesisi Thurmond'dan kaçtıklarında hayat bambaşka bir hal alır. East River'daki güvenli bölgeye ulaşmaya çalışan grup, yetişkinlerin gençlere savaş açtığı bu dünyada yalnızca kaçmanın yeterli olmadığını fark etmeye başlarlar...

Karanlık Zihinler (The Darkest Minds) Filmi Imdb'den 25,000 kişi tarafından oylandı ve 5,7 puan aldı. Bu film için editör puanı 6,0 olarak belirlendi. İyi Seyirler!


Teknik Detaylar


Kod :
General
Complete name                            : /root/Desktop/4/Karanlık.Zihinler.2018.BRRip.XviD.TR.Filmbol.avi
Format                                   : AVI
Format/Info                              : Audio Video Interleave
File size                                : 1.26 GiB
Duration                                 : 1h 43mn
Overall bit rate                         : 1 739 Kbps

Video
ID                                       : 0
Format                                   : MPEG-4 Visual
Format profile                           : Simple@L5
Format settings, BVOP                    : No
Format settings, QPel                    : No
Format settings, GMC                     : No warppoints
Format settings, Matrix                  : Default (H.263)
Codec ID                                 : XVID
Codec ID/Hint                            : XviD
Duration                                 : 1h 43mn
Bit rate                                 : 1 598 Kbps
Width                                    : 720 pixels
Height                                   : 304 pixels
Display aspect ratio                     : 2.40:1
Frame rate                               : 23.976 fps
Color space                              : YUV
Chroma subsampling                       : 4:2:0
Bit depth                                : 8 bits
Scan type                                : Progressive
Compression mode                         : Lossy
Bits/(Pixel*Frame)                       : 0.304
Stream size                              : 1.16 GiB (92%)
Writing library                          : Lavc58.18.100

Audio
ID                                       : 1
Format                                   : MPEG Audio
Format version                           : Version 1
Format profile                           : Layer 3
Mode                                     : Joint stereo
Mode extension                           : MS Stereo
Codec ID                                 : 55
Codec ID/Hint                            : MP3
Duration                                 : 1h 43mn
Bit rate mode                            : Constant
Bit rate                                 : 128 Kbps
Channel(s)                               : 2 channels
Sampling rate                            : 48.0 KHz
Compression mode                         : Lossy
Stream size                              : 95.0 MiB (7%)
Alignment                                : Aligned on interleaves
Interleave, duration                     : 24 ms (0.58 video frame)

Film Detayları


Karanlık Zihinler

Karanlık Zihinler

Karanlık Zihinler


Film Fragmanı


Film Detayları

Brrip İndir



Uptobox ile indir

1Fichier ile indir

1Fichier'den İndiremiyor musun? Tıklayın!


Mega ile indir

MediaFire ile indir



Konu ile Alakalı Benzer Konular
Konular Yazar Yorumlar Okunma Son Yorum
Filmin Yayınlanma Tarihi: 2020
Zengo (Zengo) - 2020 - TR - BRRip XviD BroserBros 0 20 , Saat: 14:08
Son Yorum: BroserBros
Filmin Yayınlanma Tarihi: 2019
Yalan Dolan (Yalan Dolan) - 2019 - TR - BRRip XviD BroserBros 0 19 , Saat: 13:57
Son Yorum: BroserBros
Filmin Yayınlanma Tarihi: 2019
Hatıra (The Souvenir) - 2019 - TR - BRRip XviD BroserBros 0 19 , Saat: 13:04
Son Yorum: BroserBros
Filmin Yayınlanma Tarihi: 2020
My Spy (My Spy) - 2020 - TR - BRRip XviD BroserBros 0 7 , Saat: 12:53
Son Yorum: BroserBros
Filmin Yayınlanma Tarihi: 2019
Luce (Luce) - 2019 - TR - BRRip XviD BroserBros 0 31 28-11-2020, Saat: 17:58
Son Yorum: BroserBros

Hızlı Menü: