Filmbol Forum Film İndir BRRip XviD v Kadavra (The Possession of Hannah Grace) Türkçe Dublaj Brrip Xvid İndir
Filmbol'da moderatör olmak ister misiniz? Bizimle iletişime geçmek için tıklayın!
Kadavra (The Possession of Hannah Grace) Türkçe Dublaj Brrip Xvid İndir
BroserBros
Kadavra (The Possession of Hannah Grace) Türkçe Dublaj Brrip Xvid İndir
1
363
  • Derecelendirme: 0/5 - 0 oy
  • 1
  • 2
  • 3
  • 4
  • 5
Konuyu Okuyanlar:1 Ziyaretçi
Şuan Online!
Filmin Yayınlanma Tarihi: 2018 
Şuan Online!
BroserBros Kurucu Admin
*******
Admin

Vizyon Tarihi


15 Mart 2019

imdb puanı


5,2 / 15,000

süre


86 dakika

Editör Puanı


5,0

Video Format: Avi


Audio Video Interleave (.AVI)

Ses Kodek: MP3


MPEG-1 Audio Layer III (MP3)

sürüm


h263 | Brrip Xvid

Boyutlar


0,62



Kadavra



Film Detayları

Genç bir kadın olan Megan Reed, eski bir polistir. Çok sevdiği mesleğini ardında bırakmış olmasının sebebi ise geçmişte mücadele etmek zorunda kaldığı ağır madde bağımlılığıdır. Rehabilitasyona giren ve aylarca sarfedilen emeğin ardından kendini toparlamayı başaran Megan, artık bağımlılığından kurtulduğu hastanenin geceyarısı vardiyasında bekçi olarak çalışmaktadır. Megan işe başladıktan bir süre sonra hastane morguna vahşice öldürülmüş bir kadın cesedi getirilir. Bu ceset bie şeytan çıkarma ayininde hayatını kaybeden Hannah Grace'e aittir. Cesedin gelişiyle birlikte garip ve ürpertici deneyimler yaşamaya başlayan Megan, parçalanmış olan bedenin acımasız bir şeytani güç tarafından ele geçirilmiş olabileceğinden şüphelenmeye başlar. Kilit altındaki binada tek başına olan genç kadın, hayatta kalabilmek için tüm gücünü kullanmak zorundadır...

Kadavra (The Possession of Hannah Grace) Filmi Imdb'den 15,000 kişi tarafından oylandı ve 5,2 puan aldı. Bu film için editör puanı 5,0 olarak belirlendi. İyi Seyirler!


Teknik Detaylar


Kod :
General
Complete name                            : /root/Desktop/5/Kadavra.2018.BRRip.XviD.TR.Filmbol.avi
Format                                   : AVI
Format/Info                              : Audio Video Interleave
File size                                : 626 MiB
Duration                                 : 1h 25mn
Overall bit rate                         : 1 021 Kbps

Video
ID                                       : 0
Format                                   : MPEG-4 Visual
Format profile                           : Simple@L5
Format settings, BVOP                    : No
Format settings, QPel                    : No
Format settings, GMC                     : No warppoints
Format settings, Matrix                  : Default (H.263)
Codec ID                                 : XVID
Codec ID/Hint                            : XviD
Duration                                 : 1h 25mn
Bit rate                                 : 880 Kbps
Width                                    : 720 pixels
Height                                   : 302 pixels
Display aspect ratio                     : 2.40:1
Frame rate                               : 23.976 fps
Color space                              : YUV
Chroma subsampling                       : 4:2:0
Bit depth                                : 8 bits
Scan type                                : Progressive
Compression mode                         : Lossy
Bits/(Pixel*Frame)                       : 0.169
Stream size                              : 540 MiB (86%)
Writing library                          : Lavc58.35.100

Audio
ID                                       : 1
Format                                   : MPEG Audio
Format version                           : Version 1
Format profile                           : Layer 3
Mode                                     : Joint stereo
Mode extension                           : MS Stereo
Codec ID                                 : 55
Codec ID/Hint                            : MP3
Duration                                 : 1h 25mn
Bit rate mode                            : Constant
Bit rate                                 : 128 Kbps
Channel(s)                               : 2 channels
Sampling rate                            : 48.0 KHz
Compression mode                         : Lossy
Stream size                              : 78.5 MiB (13%)
Alignment                                : Aligned on interleaves
Interleave, duration                     : 24 ms (0.58 video frame)

Film Detayları


Kadavra

Kadavra

Kadavra


Film Fragmanı


Film Detayları

Brrip İndir



Uptobox ile indir

1Fichier ile indir

1Fichier'den İndiremiyor musun? Tıklayın!


Mega ile indir

MediaFire ile indir

Şuan Offine!
Şuan Offine!
Ali3838 Yeni Üye
*
Üye

  • Konular0
  • Mesajlar5
  • Rep puanı 0
Emeğine sağlık üstad


Konu ile Alakalı Benzer Konular
Konular Yazar Yorumlar Okunma Son Yorum
Filmin Yayınlanma Tarihi: 2020
Zengo (Zengo) - 2020 - TR - BRRip XviD BroserBros 0 20 , Saat: 14:08
Son Yorum: BroserBros
Filmin Yayınlanma Tarihi: 2019
Yalan Dolan (Yalan Dolan) - 2019 - TR - BRRip XviD BroserBros 0 19 , Saat: 13:57
Son Yorum: BroserBros
Filmin Yayınlanma Tarihi: 2019
Hatıra (The Souvenir) - 2019 - TR - BRRip XviD BroserBros 0 19 , Saat: 13:04
Son Yorum: BroserBros
Filmin Yayınlanma Tarihi: 2020
My Spy (My Spy) - 2020 - TR - BRRip XviD BroserBros 0 7 , Saat: 12:53
Son Yorum: BroserBros
Filmin Yayınlanma Tarihi: 2019
Luce (Luce) - 2019 - TR - BRRip XviD BroserBros 0 31 28-11-2020, Saat: 17:58
Son Yorum: BroserBros

Hızlı Menü: