Filmbol Forum Film İndir 720P v Kadavra (The Possession of Hannah Grace) Türkçe Dublaj BLURAY 720P İndir
Filmbol'da moderatör olmak ister misiniz? Bizimle iletişime geçmek için tıklayın!
Kadavra (The Possession of Hannah Grace) Türkçe Dublaj BLURAY 720P İndir
BroserBros
Kadavra (The Possession of Hannah Grace) Türkçe Dublaj BLURAY 720P İndir
2
356
  • Derecelendirme: 0/5 - 0 oy
  • 1
  • 2
  • 3
  • 4
  • 5
Konuyu Okuyanlar:1 Ziyaretçi
Şuan Online!
Filmin Yayınlanma Tarihi: 2018 
Şuan Online!
BroserBros Kurucu Admin
*******
Admin

Vizyon Tarihi


15 Mart 2019

imdb puanı


5,2 / 15,000

süre


86 dakika

Editör Puanı


5,0

Video Format: Mkv


Matroska (.MKV)

Ses Kodek: AC3


Audio Coding 3 (AC3)

sürüm


x264 | 720P | BLURAY

Boyutlar


0,76



Kadavra



Film Detayları

Genç bir kadın olan Megan Reed, eski bir polistir. Çok sevdiği mesleğini ardında bırakmış olmasının sebebi ise geçmişte mücadele etmek zorunda kaldığı ağır madde bağımlılığıdır. Rehabilitasyona giren ve aylarca sarfedilen emeğin ardından kendini toparlamayı başaran Megan, artık bağımlılığından kurtulduğu hastanenin geceyarısı vardiyasında bekçi olarak çalışmaktadır. Megan işe başladıktan bir süre sonra hastane morguna vahşice öldürülmüş bir kadın cesedi getirilir. Bu ceset bie şeytan çıkarma ayininde hayatını kaybeden Hannah Grace'e aittir. Cesedin gelişiyle birlikte garip ve ürpertici deneyimler yaşamaya başlayan Megan, parçalanmış olan bedenin acımasız bir şeytani güç tarafından ele geçirilmiş olabileceğinden şüphelenmeye başlar. Kilit altındaki binada tek başına olan genç kadın, hayatta kalabilmek için tüm gücünü kullanmak zorundadır...

Kadavra (The Possession of Hannah Grace) Filmi Imdb'den 15,000 kişi tarafından oylandı ve 5,2 puan aldı. Bu film için editör puanı 5,0 olarak belirlendi. İyi Seyirler!


Teknik Detaylar


Kod :
General
Unique ID                                : 224461471612701140602260854053112557680 (0xA8DDB4FAF02C2985FB8EF958B3A6B070)
Complete name                            : /root/Desktop/5/Kadavra.2018.720p.BLURAY.x264.TR.Filmbol.mkv
Format                                   : Matroska
Format version                           : Version 4 / Version 2
File size                                : 763 MiB
Duration                                 : 1h 25mn
Overall bit rate                         : 1 244 Kbps
Movie name                               : Kadavra (2018) - Filmbol.org
Encoded date                             : UTC 2019-12-24 14:25:48
Writing application                      : mkvmerge v35.0.0 ('All The Love In The World') 64-bit
Writing library                          : libebml v1.3.9 + libmatroska v1.5.2

Video
ID                                       : 1
Format                                   : AVC
Format/Info                              : Advanced Video Codec
Format profile                           : High@L4.1
Format settings, CABAC                   : Yes
Format settings, ReFrames                : 4 frames
Codec ID                                 : V_MPEG4/ISO/AVC
Duration                                 : 1h 25mn
Bit rate                                 : 1 050 Kbps
Width                                    : 1 280 pixels
Height                                   : 534 pixels
Display aspect ratio                     : 2.40:1
Original display aspect ratio            : 2.40:1
Frame rate mode                          : Constant
Frame rate                               : 23.976 (24000/1001) fps
Color space                              : YUV
Chroma subsampling                       : 4:2:0
Bit depth                                : 8 bits
Scan type                                : Progressive
Bits/(Pixel*Frame)                       : 0.064
Stream size                              : 644 MiB (84%)
Title                                    : 720P - Filmbol.org
Writing library                          : x264 core 152
Encoding settings                        : cabac=1 / ref=4 / deblock=1:-1:-1 / analyse=0x3:0x133 / me=umh / subme=9 / psy=1 / psy_rd=1.00:0.15 / mixed_ref=1 / me_range=24 / chroma_me=1 / trellis=2 / 8x8dct=1 / cqm=0 / deadzone=21,11 / fast_pskip=0 / chroma_qp_offset=-3 / threads=12 / lookahead_threads=1 / sliced_threads=0 / nr=0 / decimate=1 / interlaced=0 / bluray_compat=0 / constrained_intra=0 / bframes=3 / b_pyramid=2 / b_adapt=2 / b_bias=0 / direct=3 / weightb=1 / open_gop=0 / weightp=2 / keyint=250 / keyint_min=23 / scenecut=40 / intra_refresh=0 / rc_lookahead=60 / rc=2pass / mbtree=1 / bitrate=1050 / ratetol=1.0 / qcomp=0.60 / qpmin=0 / qpmax=69 / qpstep=4 / cplxblur=20.0 / qblur=0.5 / vbv_maxrate=31250 / vbv_bufsize=31250 / nal_hrd=none / filler=0 / ip_ratio=1.40 / aq=1:1.00
Default                                  : Yes
Forced                                   : No

Audio
ID                                       : 2
Format                                   : AC-3
Format/Info                              : Audio Coding 3
Mode extension                           : CM (complete main)
Format settings, Endianness              : Big
Codec ID                                 : A_AC3
Duration                                 : 1h 25mn
Bit rate mode                            : Constant
Bit rate                                 : 192 Kbps
Channel(s)                               : 2 channels
Channel positions                        : Front: L R
Sampling rate                            : 48.0 KHz
Frame rate                               : 31.250 fps (1536 spf)
Compression mode                         : Lossy
Stream size                              : 118 MiB (15%)
Title                                    : Türkçe - Filmbol.org
Language                                 : Turkish
Default                                  : Yes
Forced                                   : No

Film Detayları


Kadavra

Kadavra

Kadavra


Film Fragmanı


Film Detayları

Mini 720P İndir



Uptobox ile indir

1Fichier ile indir

1Fichier'den İndiremiyor musun? Tıklayın!


Mega ile indir

MediaFire ile indir

Şuan Offine!
Şuan Offine!
gokenci43 Uzman Üye
**
Uzman Üye

  • Konular0
  • Mesajlar16
  • Rep puanı 0
çok gzl bir film
Şuan Offine!
Şuan Offine!
Hturk5690 Yeni Üye
*
Üye

  • Konular0
  • Mesajlar2
  • Rep puanı 0
ilginç bir filme benziyor


Konu ile Alakalı Benzer Konular
Konular Yazar Yorumlar Okunma Son Yorum
Filmin Yayınlanma Tarihi: 2020
Zengo (Zengo) - 2020 - TR+ORG - 720P BroserBros 0 20 , Saat: 14:08
Son Yorum: BroserBros
Filmin Yayınlanma Tarihi: 2019
Hatıra (The Souvenir) - 2019 - TR+ORG - 720P BroserBros 0 20 , Saat: 13:04
Son Yorum: BroserBros
Filmin Yayınlanma Tarihi: 2020
My Spy (My Spy) - 2020 - TR+ORG - 720P BroserBros 0 22 , Saat: 12:54
Son Yorum: BroserBros
Filmin Yayınlanma Tarihi: 2019
Luce (Luce) - 2019 - TR+ORG - 720P BroserBros 0 28 28-11-2020, Saat: 17:58
Son Yorum: BroserBros
Filmin Yayınlanma Tarihi: 2020
Aşka İnan (I Still Believe) - 2020 - TR+ORG - 720P BroserBros 0 27 28-11-2020, Saat: 16:58
Son Yorum: BroserBros

Hızlı Menü: