Filmbol Forum Film İndir 720P v Kaçış Planı 3 (Escape Plan: The Extractors) Türkçe Dublaj BLURAY 720P İndir
Mega linklerinin şikayet edilmemesi için global erişime kapatıp sadece yorum yapanlara açıyoruz. Bu linkleri gizleme işlemini mecburen yapıyoruz ve yorum yapmanızın siteye değil size faydası vardır. Teşekürler yazmayı çok görüp, Random/Spam mesajlar atarak Mega linklerini açmaya çalışan kullanıcılara önce süresiz ban, devam ederse IP ban atacağız.
Filmbol'da moderatör olmak ister misiniz? Bizimle iletişime geçmek için tıklayın!
Kaçış Planı 3 (Escape Plan: The Extractors) Türkçe Dublaj BLURAY 720P İndir
BroserBros
Kaçış Planı 3 (Escape Plan: The Extractors) Türkçe Dublaj BLURAY 720P İndir
1
286
  • Derecelendirme: 0/5 - 0 oy
  • 1
  • 2
  • 3
  • 4
  • 5
Konuyu Okuyanlar:1 Ziyaretçi
Şuan Online!
Filmin Yayınlanma Tarihi: 2019 
WWW
Şuan Online!
BroserBros Kurucu Admin
*******
Admin








 Kaçış Planı 3



Kaçış Planı 3, düşmanlarıyla yüzleşmek ve zaman dolmadan rehineleri kurtarmak için ölümcül bir kurtarma görevine girişen Breslin ve ekibinin hikayesini konu ediyor. Hong Kong temelli bir teknoloji güvenlik şirketinin uzmanlığı yürüten bir adamın kızı kaçırılmıştır. Standart bir fidye isteme durumu gibi görünmektedir. Kızın sağ salim geri getirilmesi için güvenlik uzmanı Ray Breslin ve ekibinin yardımına başvurulur. Breslin ve ekibi kaçırılma hakkında daha derine indikçe suçluların eski düşmanlarından birinin acımasız oğlu olduğunu keşfederler. Kaçırılan kızın, "Şeytan'ın İstasyonu" olarak bilinen, devasa ve zorlu bir Letonya hapishanesinden kurtarılması gerekmektedir. Ancak ekip işi aldıktan sonra Breslin'in kız arkadaşı da kaçırılıp aynı hapishaneye götürülür. Şimdi Breslin ve ekibi sadist düşmanlarıyla yüzleşmek ve zaman dolmadan rehineleri kurtarmak için ölümcül bir kurtarma görevine girişmelidir...

Kaçış Planı 3 (2019) (Escape Plan: The Extractors) Filmi Imdb'den 10,000 kişi tarafından oylandı ve 4,4 puan aldı. Bu film için editör puanı 5,0 olarak belirlendi. İyi Seyirler!

Teknik Detaylar

Kod :
General
Unique ID                                : 321010658012541552817746344958196449878 (0xF18067643EF09A67B319ED5EDD580256)
Complete name                            : /root/Desktop/5/Kaçış.Planı.3.2019.720p.BLURAY.x264.DUAL.TR.Filmbol.mkv
Format                                   : Matroska
Format version                           : Version 4 / Version 2
File size                                : 969 MiB
Duration                                 : 1h 37mn
Overall bit rate                         : 1 392 Kbps
Movie name                               : Kaçış Planı 3 (2019) - Filmbol.org
Encoded date                             : UTC 2020-01-31 15:21:35
Writing application                      : mkvmerge v35.0.0 ('All The Love In The World') 64-bit
Writing library                          : libebml v1.3.9 + libmatroska v1.5.2

Video
ID                                       : 1
Format                                   : AVC
Format/Info                              : Advanced Video Codec
Format profile                           : [email protected]
Format settings, CABAC                   : Yes
Format settings, ReFrames                : 2 frames
Format settings, GOP                     : N=1
Codec ID                                 : V_MPEG4/ISO/AVC
Duration                                 : 1h 37mn
Bit rate                                 : 1 198 Kbps
Width                                    : 1 280 pixels
Height                                   : 534 pixels
Display aspect ratio                     : 2.40:1
Frame rate mode                          : Constant
Frame rate                               : 23.976 (24000/1001) fps
Color space                              : YUV
Chroma subsampling                       : 4:2:0
Bit depth                                : 8 bits
Scan type                                : Progressive
Bits/(Pixel*Frame)                       : 0.073
Stream size                              : 834 MiB (86%)
Title                                    : 720P - Filmbol.org
Default                                  : Yes
Forced                                   : No

Audio
ID                                       : 2
Format                                   : AC-3
Format/Info                              : Audio Coding 3
Mode extension                           : CM (complete main)
Format settings, Endianness              : Big
Codec ID                                 : A_AC3
Duration                                 : 1h 37mn
Bit rate mode                            : Constant
Bit rate                                 : 192 Kbps
Channel(s)                               : 2 channels
Channel positions                        : Front: L R
Sampling rate                            : 48.0 KHz
Frame rate                               : 31.250 fps (1536 spf)
Compression mode                         : Lossy
Stream size                              : 134 MiB (14%)
Title                                    : Türkçe - Filmbol.org
Language                                 : Turkish
Default                                  : Yes
Forced                                   : No

Film Detayları


 Kaçış Planı 3

 Kaçış Planı 3

 Kaçış Planı 3


Film Fragmanı


Film Detayları

Mini 720P İndir

Uptobox ile indir

1Fichier ile indir

1Fichier'den İndiremiyor musun? Tıklayın!


Mega linki şuan da gizli. Kullanıma açmak için konuya yorum yapın ve ardından sayfayı yenileyin.

Mega


MediaFire ile indir

Şuan Offine!
Şuan Offine!
ruby Yeni Üye
*
Üye

  • Konular0
  • Mesajlar4
  • Rep puanı 0
teşekkürler


Konu ile Alakalı Benzer Konular
Konular Yazar Yorumlar Okunma Son Yorum
Filmin Yayınlanma Tarihi: 1974
Baba 2 (The Godfather: Part II) - 1974 - TR+ORG - 720P | tt0071562 BroserBros 1 266 1 saat önce
Son Yorum: BroserBros
Filmin Yayınlanma Tarihi: 2008
VOL-i (WALL-E) - 2008 - TR+ORG - 720P | tt0910970 BroserBros 2 334 1 saat önce
Son Yorum: BroserBros
Filmin Yayınlanma Tarihi: 1972
Baba (The Godfather) - 1972 - TR+ORG - 720P | tt0068646 BroserBros 1 209 2 saat önce
Son Yorum: BroserBros
Filmin Yayınlanma Tarihi: 1990
Baba 3 (The Godfather: Part III) - 1990 - TR+ORG - 720P | tt0099674 BroserBros 1 269 2 saat önce
Son Yorum: BroserBros
Filmin Yayınlanma Tarihi: 1998
Armageddon (Armageddon) - 1998 - TR+ORG - 720P | tt0120591 BroserBros 1 299 4 saat önce
Son Yorum: BroserBros

Hızlı Menü: