Hoşgeldin, Ziyaretçi: Giriş Yap Üye Ol


stats
Adblock'u kapattıysanız tıklayın.
Hoşgeldiniz!
Filmbol'u tercih ettiğiniz için teşekkürler, ancak ablock kullanarak devam edemezsiniz.
Merak etmeyin. Heryerden ardı ardına çıkan reklamlar görmeyeceksiniz :)

Sadece site içi 1 reklam göreceksin ve bu site gezintini etkilemeyecek.
Konuyu Oyla:
  • Derecelendirme: 0/5 - 0 oy
  • 1
  • 2
  • 3
  • 4
  • 5
Title: Kaçış Planı 2: Hades (Escape Plan 2) Türkçe Dublaj Brrip Xvid İndir
Gösterim Stili
#1
Filmin Yayınlanma Tarihi: 2018 

indirme türü


Bulut + Premium

vizyon tarihi


29 Haziran 2018

Boyutlar


1,10

diller


[TR]

altyazilar


Yok [Eklenebilir]

Video Format: Avi


Audio Video Interleave (.AVI)

Video Detay


MPEG-4, 1538 Kbps, 1,01 GB

imdb puanı


3,8 / 10,0 / 23,000

süre


96 dakika

Ses Kodek: MP3


MPEG-1 Audio Layer III (MP3)

Ses Detay


128 Kbps, 2 Kanal, 86Mb

Editör Puanı


4,5

Genislik Yukseklik


720-302

sürüm


h263 | Brrip Xvid





Kacis Plani 2


Film Detayları

Kaçış Planı 2’de, Ray Breslin’in bilgisayarlı bir tekno-terör labirentinde kaybolan arkadaşını kurtarmak için verdiği mücadele anlatılıyor. Ray Breslin, yüksek güvenlikli hapishaneden kaçışının yıllar sonrasında yeni bir birinci sınıf, kiralık güvenlik gücü oluşturmuştur. Ama takım üyelerinden dövüş ustası Shu , Hades olarak bilinen bilgisayarlı tekno-terör savaş-labirentinde kaybolur. Breslin, arkadaşını kaybolduğu labirentten kurtarmaya kararlıdır. Bunun için öncelikle dünyanın en iyi gizli hapishanesine girme, kaçırılan takımı serbest bırakma ve onları canlı halde geri getirmenin bir yolunu bulmalıdır...

2013 yapımı "Kaçış Planı"nın 5 yıl aradan sonra gelen devam halkasının başrolünü bir kez daha aksiyon yıldızı Sylvester Stallone üstleniyor. Başrolde Stallone'a "Galaksinin Koruyucuları" serisinin Drax'ı olarak parlayan Dave Bautista, Silent Night ve Ocean's 8 filmlerinde yer alan Jaime King ve ünlü hip-hop sanatçısı Curtis Jackson’ın eşlik ettiği aksiyon filminde Huang Xiaoming, Jesse Metcalfe, Wes Chatham, Lydia Hull, Titus Welliver de yer alıyor. Filmin yönetmen koltuğunda bu defa Mikael Håfström yerine, Silent Night, Marauders, First Kill filmlerinden hatırladığımız Steven C. Miller oturuyor.
 
Kaçış Planı 2: Hades (Escape Plan 2: Hades) Filmi Imdb'den 23,000 kişi tarafından oylandı ve 3,8 puan aldı. Bu film için editör puanı 4,5 olarak belirlendi. İyi Seyirler!


Teknik Detaylar

Kod:
General
Complete name                            : Kaçış.Planı.2.Hades.2018.BRRip.XviD.TR.Filmbol.avi
Format                                   : AVI
Format/Info                              : Audio Video Interleave
File size                                : 1.10 GiB
Duration                                 : 1h 33mn
Overall bit rate                         : 1 679 Kbps

Video
ID                                       : 0
Format                                   : MPEG-4 Visual
Format profile                           : Simple@L5
Format settings, BVOP                    : No
Format settings, QPel                    : No
Format settings, GMC                     : No warppoints
Format settings, Matrix                  : Default (H.263)
Codec ID                                 : XVID
Codec ID/Hint                            : XviD
Duration                                 : 1h 33mn
Bit rate                                 : 1 538 Kbps
Width                                    : 720 pixels
Height                                   : 302 pixels
Display aspect ratio                     : 2.40:1
Frame rate                               : 23.976 fps
Color space                              : YUV
Chroma subsampling                       : 4:2:0
Bit depth                                : 8 bits
Scan type                                : Progressive
Compression mode                         : Lossy
Bits/(Pixel*Frame)                       : 0.295
Stream size                              : 1.01 GiB (92%)
Writing library                          : Lavc57.107.100

Audio
ID                                       : 1
Format                                   : MPEG Audio
Format version                           : Version 1
Format profile                           : Layer 3
Mode                                     : Joint stereo
Mode extension                           : MS Stereo
Codec ID                                 : 55
Codec ID/Hint                            : MP3
Duration                                 : 1h 33mn
Bit rate mode                            : Constant
Bit rate                                 : 128 Kbps
Channel(s)                               : 2 channels
Sampling rate                            : 48.0 KHz
Compression mode                         : Lossy
Stream size                              : 85.7 MiB (8%)
Alignment                                : Aligned on interleaves
Interleave, duration                     : 24 ms (0.58 video frame)



Film Detayları


Kacis 

Kacis 

Kacis 



Film Fragmanı


Film Detayları

Brrip İndir


MixDrop ile indir

Tusfiles ile indir

LetsUpload ile indir


Mega linki şuan da gizli. Kullanıma açmak için konuya yorum yapın ve ardından sayfayı yenileyin. Ayrıca bu linki açtığınızda reklamsız olarak erişebileceğinizi unutmayın.

Mega


Dosya Upload ile indir

Mediafire linki şuan da gizli. Kullanıma açmak için konuya yorum yapın ve ardından sayfayı yenileyin. Ayrıca bu linki açtığınızda reklamsız olarak erişebileceğinizi unutmayın.

Mediafire


 
Cevapla
#2
On numara
 
Cevapla
#3
güzel olmuş
 
Cevapla
  


Konu ile Alakalı Benzer Konular
Konular Yazar Yorumlar Okunma Son Yorum
Filmin Yayınlanma Tarihi: 2019 Annabelle 3 (Annabelle Comes Home) Türkçe Dublaj Brrip Xvid İndir BroserBros 0 55 10-11-2019, Saat: 06:57
Son Yorum: BroserBros
Filmin Yayınlanma Tarihi: 2018 El Royale'de Zor Zamanlar (Bad Times at the El Royale) Türkçe Dublaj Brrip-Xvid İndir DRMOV 0 340 12-02-2019, Saat: 11:17
Son Yorum: DRMOV
Filmin Yayınlanma Tarihi: 2018 Öykü (The Tale) Türkçe Dublaj Brrip-Xvid İndir BroserBros 0 474 23-08-2018, Saat: 20:47
Son Yorum: BroserBros
Filmin Yayınlanma Tarihi: 2015 Geçmişten Gelen (The Gift) Türkçe Dublaj Brrip-Xvid İndir BroserBros 0 1,001 27-02-2017, Saat: 21:50
Son Yorum: BroserBros
Filmin Yayınlanma Tarihi: 2016 Yüce Sezar (Hail Ceaser) Türkçe Dublaj Brrip-Xvid İndir BroserBros 0 789 23-02-2017, Saat: 21:04
Son Yorum: BroserBros

Hızlı Menü:


Browsing: 1 Ziyaretçi