Hoşgeldin, Ziyaretçi: Giriş Yap Üye Ol


stats
Adblock'u kapattıysanız tıklayın.
Hoşgeldiniz!
Filmbol'u tercih ettiğiniz için teşekkürler, ancak ablock kullanarak devam edemezsiniz.
Merak etmeyin. Heryerden ardı ardına çıkan reklamlar görmeyeceksiniz :)

Sadece site içi 1 reklam göreceksin ve bu site gezintini etkilemeyecek.
Konuyu Oyla:
  • Derecelendirme: 0/5 - 0 oy
  • 1
  • 2
  • 3
  • 4
  • 5
Title: Kaçış Planı 2: Hades (Escape Plan 2) Türkçe Dublaj BLURAY m720P İndir
Gösterim Stili
#1
Filmin Yayınlanma Tarihi: 2018 

indirme türü


Bulut + Premium

vizyon tarihi


29 Haziran 2018

Boyutlar


0,83

diller


[TR]

altyazilar


Yok [Eklenebilir]

Video Format: Mkv


Matroska (.MKV)

Video Detay


MPEG-4, 1050 Kbps, 0,70 GB

imdb puanı


3,8 / 10,0 / 23,000

süre


96 dakika

Ses Kodek: AC3


Audio Coding 3 (AC3)

Ses Detay


192 Kbps, 2 Kanal, 129Mb

Editör Puanı


4,5

Genislik Yukseklik


1280-534

sürüm


x264 | m720P





Kacis Plani 2


Film Detayları

Kaçış Planı 2’de, Ray Breslin’in bilgisayarlı bir tekno-terör labirentinde kaybolan arkadaşını kurtarmak için verdiği mücadele anlatılıyor. Ray Breslin, yüksek güvenlikli hapishaneden kaçışının yıllar sonrasında yeni bir birinci sınıf, kiralık güvenlik gücü oluşturmuştur. Ama takım üyelerinden dövüş ustası Shu , Hades olarak bilinen bilgisayarlı tekno-terör savaş-labirentinde kaybolur. Breslin, arkadaşını kaybolduğu labirentten kurtarmaya kararlıdır. Bunun için öncelikle dünyanın en iyi gizli hapishanesine girme, kaçırılan takımı serbest bırakma ve onları canlı halde geri getirmenin bir yolunu bulmalıdır...

2013 yapımı "Kaçış Planı"nın 5 yıl aradan sonra gelen devam halkasının başrolünü bir kez daha aksiyon yıldızı Sylvester Stallone üstleniyor. Başrolde Stallone'a "Galaksinin Koruyucuları" serisinin Drax'ı olarak parlayan Dave Bautista, Silent Night ve Ocean's 8 filmlerinde yer alan Jaime King ve ünlü hip-hop sanatçısı Curtis Jackson’ın eşlik ettiği aksiyon filminde Huang Xiaoming, Jesse Metcalfe, Wes Chatham, Lydia Hull, Titus Welliver de yer alıyor. Filmin yönetmen koltuğunda bu defa Mikael Håfström yerine, Silent Night, Marauders, First Kill filmlerinden hatırladığımız Steven C. Miller oturuyor.
 
Kaçış Planı 2: Hades (Escape Plan 2: Hades) Filmi Imdb'den 23,000 kişi tarafından oylandı ve 3,8 puan aldı. Bu film için editör puanı 4,5 olarak belirlendi. İyi Seyirler!


Teknik Detaylar

Kod:
General
Complete name                            : Kaçış.Planı.2.Hades.2018.m720p.BLURAY.x264.TR.Filmbol.mkv
Format                                   : Matroska
Format version                           : Version 4 / Version 2
File size                                : 833 MiB
Duration                                 : 1h 33mn
Overall bit rate                         : 1 244 Kbps
Movie name                               : Kaçış Planı: Hades (2018) - Filmbol.org
Encoded date                             : UTC 2019-09-06 16:21:46
Writing application                      : mkvmerge v35.0.0 ('All The Love In The World') 64-bit
Writing library                          : libebml v1.3.9 + libmatroska v1.5.2

Video
ID                                       : 1
Format                                   : AVC
Format/Info                              : Advanced Video Codec
Format profile                           : High@L4.1
Format settings, CABAC                   : Yes
Format settings, ReFrames                : 4 frames
Codec ID                                 : V_MPEG4/ISO/AVC
Duration                                 : 1h 33mn
Bit rate                                 : 1 050 Kbps
Width                                    : 1 280 pixels
Height                                   : 534 pixels
Display aspect ratio                     : 2.40:1
Original display aspect ratio            : 2.40:1
Frame rate mode                          : Constant
Frame rate                               : 23.976 (24000/1001) fps
Color space                              : YUV
Chroma subsampling                       : 4:2:0
Bit depth                                : 8 bits
Scan type                                : Progressive
Bits/(Pixel*Frame)                       : 0.064
Stream size                              : 703 MiB (84%)
Title                                    : m720P - Filmbol.org
Writing library                          : x264 core 152
Default                                  : Yes
Forced                                   : No

Audio
ID                                       : 2
Format                                   : AC-3
Format/Info                              : Audio Coding 3
Mode extension                           : CM (complete main)
Format settings, Endianness              : Big
Codec ID                                 : A_AC3
Duration                                 : 1h 33mn
Bit rate mode                            : Constant
Bit rate                                 : 192 Kbps
Channel(s)                               : 2 channels
Channel positions                        : Front: L R
Sampling rate                            : 48.0 KHz
Frame rate                               : 31.250 fps (1536 spf)
Compression mode                         : Lossy
Stream size                              : 129 MiB (15%)
Title                                    : Türkçe - Filmbol.org
Language                                 : Turkish
Default                                  : Yes
Forced                                   : No



Film Detayları


Kacis 

Kacis 

Kacis 


Film Fragmanı


Film Detayları

Mini 720P İndir


MixDrop ile indir

Tusfiles ile indir

LetsUpload ile indir

Filmbol'da aşağıdaki linkler sadece üyelere sunulur. Ayrıca bu linklerde link kısaltma servisleri kullanılmaz, linke tek tık ile reklamsız erişirsiniz. Konu'ya yorum yapın ve sayfayı yenileyin. Reklamsız linkler (en az 3 en fazla 5 link) açılmış olacaktır. Not: Filmbol'a üye olmak tamamen ücretsizdir, en az 3 link kuralı 01.07.2019 tarihinden sonraki paylaşımlar için geçerlidir. Ancak çoğu film için en az bir premium link her zaman bulunur.

Mega

Dosyaco

Dosyaupload

Mediafire

Google Drive
 
Cevapla
#2
güzel film
 
Cevapla
#3
Güzel
 
Cevapla
  


Hızlı Menü:


Browsing: 1 Ziyaretçi