Filmbol Forum Film İndir BRRip XviD v Kaçış Oyunu (Play or Die) Türkçe Dublaj BRRip XviD İndir
Moderatör Alımları Başladı! Başvuru yapmak için tıklayın.
Filmbol Premium'da %50'e varan indirim fırsatı!
Kaçış Oyunu (Play or Die) Türkçe Dublaj BRRip XviD İndir
BroserBros
Kaçış Oyunu (Play or Die) Türkçe Dublaj BRRip XviD İndir
2
384
  • Derecelendirme: 0/5 - 0 oy
  • 1
  • 2
  • 3
  • 4
  • 5
Konuyu Okuyanlar:1 Ziyaretçi
Şuan Online!
Filmin Yayınlanma Tarihi: 2019 
Şuan Online!
BroserBros Kurucu Admin
*******
Admin

Vizyon Tarihi


16 Ağustos 2019

imdb puanı


3,7 / 1,000

süre


89 dakika

Editör Puanı


4,2 / 10

Video Format: Avi


Audio Video Interleave (.AVI)

Ses Kodek: MP3


MPEG-1 Audio Layer III (MP3)

sürüm


h263 | HDRip XviD

Boyutlar


1,29



Play or Die



Kaçış Oyunu, 'Paranoya' adındaki bir kaçış oyununa katılan iki arkadaşın yaşadıklarını konu ediyor. En büyük kaçış oyunu Paranoya’ya hoş geldiniz. Oyunda sadece iki kural var. Birincisi, oyundaki hiçbir şey gerçek değil, ikincisi ise içinizden biri kişi ölecek. Oyun tutkunu olan Lucas ve Chloe da bu çok özel olan kaçış oyunu Paranoya’ya katılmaya karar verir. İlk bilmeceyi başarıyla çözen ikili, terk edilmiş bir akıl hastanesine götürülür. Korkutucu bir ormanın içindeki bu yerde kendileri gibi finale kalan dört oyuncu daha vardır. Oyuncular, kapatıldıkları yerden kurtulup oyunu tamamlamanın yolunu aramaya başlar. Ancak çok geçmeden içlerinden sadece bir kişinin oradan sağ çıkacağını anlarlar.

Kaçış Oyunu (2019) (Play or Die) Filmi Imdb'den 1,000 kişi tarafından oylandı ve 3,7 puan aldı. Bu film için editör puanı 4,2 olarak belirlendi. İyi Seyirler!

Teknik Detaylar

Kod :
General Complete name                            : /root/Desktop/11/Kaçış.Oyunu.2019.HDRip.XViD.TR.Filmbol.avi Format                                   : AVI Format/Info                              : Audio Video Interleave File size                                : 1.29 GiB Duration                                 : 1h 29mn Overall bit rate                         : 2 070 Kbps  Video ID                                       : 0 Format                                   : MPEG-4 Visual Format profile                           : Advanced Simple@L5 Format settings, BVOP                    : 1 Format settings, QPel                    : No Format settings, GMC                     : No warppoints Format settings, Matrix                  : Custom Codec ID                                 : XVID Codec ID/Hint                            : XviD Duration                                 : 1h 29mn Bit rate                                 : 1 929 Kbps Width                                    : 720 pixels Height                                   : 304 pixels Display aspect ratio                     : 2.35:1 Frame rate                               : 24.000 fps Color space                              : YUV Chroma subsampling                       : 4:2:0 Bit depth                                : 8 bits Scan type                                : Progressive Compression mode                         : Lossy Bits/(Pixel*Frame)                       : 0.367 Stream size                              : 1.20 GiB (93%) Writing library                          : XviD 73  Audio ID                                       : 1 Format                                   : MPEG Audio Format version                           : Version 1 Format profile                           : Layer 3 Mode                                     : Joint stereo Mode extension                           : MS Stereo Codec ID                                 : 55 Codec ID/Hint                            : MP3 Duration                                 : 1h 29mn Bit rate mode                            : Constant Bit rate                                 : 128 Kbps Channel(s)                               : 2 channels Sampling rate                            : 48.0 KHz Compression mode                         : Lossy Stream size                              : 81.8 MiB (6%) Alignment                                : Aligned on interleaves Interleave, duration                     : 24 ms (0.58 video frame)

Film Detayları


Play or Die

Play or Die

Play or Die


Film Fragmanı


Film Detayları

Brrip İndir

Uptobox ile indir

1Fichier ile indir

1Fichier'den İndiremiyor musun? Tıklayın!


Mega ile indir

MediaFire ile indir

Şuan Offine!
Şuan Offine!
BqRs Uzman Üye
**
Uzman Üye

  • Konular0
  • Mesajlar8
  • Rep puanı 0
eline sağlık admin
Şuan Offine!
Şuan Offine!
cemsav97 Süper Üye
***
Super Üye

  • Konular0
  • Mesajlar36
  • Rep puanı 0
teşekkürler


Konu ile Alakalı Benzer Konular
Konular Yazar Yorumlar Okunma Son Yorum
Filmin Yayınlanma Tarihi: 2020
Larva Adası Filmi (The Larva Island Movie) - 2020 - TR - BRRip XviD BroserBros 0 22 , Saat: 20:05
Son Yorum: BroserBros
Filmin Yayınlanma Tarihi: 2019
Uyanış (Wake Up) - 2019 - TR - BRRip XviD BroserBros 0 22 , Saat: 19:49
Son Yorum: BroserBros
Filmin Yayınlanma Tarihi: 2019
Villains (Villains) - 2019 - TR - BRRip XviD BroserBros 0 55 11-08-2020, Saat: 15:41
Son Yorum: BroserBros
Filmin Yayınlanma Tarihi: 2018
Venom: Zehirli Öfke Türkçe Dublaj Brrip-Xvid İndir DRMOV 5 959 10-08-2020, Saat: 03:58
Son Yorum: sectechno
Filmin Yayınlanma Tarihi: 2020
Fatal Affair (Fatal Affair) - 2020 - TR - BRRip XviD BroserBros 0 138 07-08-2020, Saat: 20:13
Son Yorum: BroserBros

Hızlı Menü: