Hoşgeldin, Ziyaretçi: Giriş Yap Üye Ol


Konuyu Oyla:
  • Derecelendirme: 0/5 - 0 oy
  • 1
  • 2
  • 3
  • 4
  • 5
Title: Kaçış Oyunu (Play or Die) Türkçe Dublaj BRRip XviD İndir
Gösterim Stili
#1
Filmin Yayınlanma Tarihi: 2019 

vizyon tarihi


16 Ağustos 2019

imdb puanı


3,7 / 1,000

süre


89 dakika

Editör Puanı


4,2 / 10

Video Format: Avi


Audio Video Interleave (.AVI)

Ses Kodek: MP3


MPEG-1 Audio Layer III (MP3)

sürüm


h263 | HDRip XviD

Boyutlar


1,29



Play or Die



Kaçış Oyunu, 'Paranoya' adındaki bir kaçış oyununa katılan iki arkadaşın yaşadıklarını konu ediyor. En büyük kaçış oyunu Paranoya’ya hoş geldiniz. Oyunda sadece iki kural var. Birincisi, oyundaki hiçbir şey gerçek değil, ikincisi ise içinizden biri kişi ölecek. Oyun tutkunu olan Lucas ve Chloe da bu çok özel olan kaçış oyunu Paranoya’ya katılmaya karar verir. İlk bilmeceyi başarıyla çözen ikili, terk edilmiş bir akıl hastanesine götürülür. Korkutucu bir ormanın içindeki bu yerde kendileri gibi finale kalan dört oyuncu daha vardır. Oyuncular, kapatıldıkları yerden kurtulup oyunu tamamlamanın yolunu aramaya başlar. Ancak çok geçmeden içlerinden sadece bir kişinin oradan sağ çıkacağını anlarlar.

Kaçış Oyunu (2019) (Play or Die) Filmi Imdb'den 1,000 kişi tarafından oylandı ve 3,7 puan aldı. Bu film için editör puanı 4,2 olarak belirlendi. İyi Seyirler!

Teknik Detaylar

Kod:
General Complete name                            : /root/Desktop/11/Kaçış.Oyunu.2019.HDRip.XViD.TR.Filmbol.avi Format                                   : AVI Format/Info                              : Audio Video Interleave File size                                : 1.29 GiB Duration                                 : 1h 29mn Overall bit rate                         : 2 070 Kbps  Video ID                                       : 0 Format                                   : MPEG-4 Visual Format profile                           : Advanced Simple@L5 Format settings, BVOP                    : 1 Format settings, QPel                    : No Format settings, GMC                     : No warppoints Format settings, Matrix                  : Custom Codec ID                                 : XVID Codec ID/Hint                            : XviD Duration                                 : 1h 29mn Bit rate                                 : 1 929 Kbps Width                                    : 720 pixels Height                                   : 304 pixels Display aspect ratio                     : 2.35:1 Frame rate                               : 24.000 fps Color space                              : YUV Chroma subsampling                       : 4:2:0 Bit depth                                : 8 bits Scan type                                : Progressive Compression mode                         : Lossy Bits/(Pixel*Frame)                       : 0.367 Stream size                              : 1.20 GiB (93%) Writing library                          : XviD 73  Audio ID                                       : 1 Format                                   : MPEG Audio Format version                           : Version 1 Format profile                           : Layer 3 Mode                                     : Joint stereo Mode extension                           : MS Stereo Codec ID                                 : 55 Codec ID/Hint                            : MP3 Duration                                 : 1h 29mn Bit rate mode                            : Constant Bit rate                                 : 128 Kbps Channel(s)                               : 2 channels Sampling rate                            : 48.0 KHz Compression mode                         : Lossy Stream size                              : 81.8 MiB (6%) Alignment                                : Aligned on interleaves Interleave, duration                     : 24 ms (0.58 video frame)

Film Detayları


Play or Die

Play or Die

Play or Die


Film Fragmanı


Film Detayları


Brrip İndir

Uptobox ile indir

1Fichier ile indir

Mega linki şuan da gizli. Kullanıma açmak için konuya yorum yapın ve ardından sayfayı yenileyin. Ayrıca bu linki açtığınızda reklamsız olarak erişebileceğinizi unutmayın.

Mega


Mediafire linki şuan da gizli. Kullanıma açmak için konuya yorum yapın ve ardından sayfayı yenileyin. Ayrıca bu linki açtığınızda reklamsız olarak erişebileceğinizi unutmayın.

Mediafire

 
Cevapla
#2
eline sağlık admin
 
Cevapla
#3
teşekkürler
 
Cevapla
  


Konu ile Alakalı Benzer Konular
Konular Yazar Yorumlar Okunma Son Yorum
Filmin Yayınlanma Tarihi: 2019 Hayvan Mezarlığı (Pet Samatary) Türkçe Dublaj Brrip Xvid İndir BroserBros 6 386 6 saat önce
Son Yorum: alynakrkya
Filmin Yayınlanma Tarihi: 2007 Halloween 9 (Cadılar Bayramı) Türkçe Dublaj BRRip XviD İndir BroserBros 0 38 22-01-2020, Saat: 19:27
Son Yorum: BroserBros
Filmin Yayınlanma Tarihi: 2002 Halloween 8 (Korku Bayramı 2) Türkçe Dublaj BRRip XviD İndir BroserBros 0 33 22-01-2020, Saat: 19:14
Son Yorum: BroserBros
Filmin Yayınlanma Tarihi: 1998 Halloween 7: Korku Bayramı (Cadılar Bayramı 7) Türkçe Dublaj BRRip XviD İndir BroserBros 0 31 22-01-2020, Saat: 19:05
Son Yorum: BroserBros
Filmin Yayınlanma Tarihi: 1988 Halloween 4 Cadılar Bayramı 4) Türkçe Dublaj BRRip XviD İndir BroserBros 0 29 22-01-2020, Saat: 18:53
Son Yorum: BroserBros

Hızlı Menü:


Browsing: cemsav97, 1 Ziyaretçi