Filmbol Forum Film İndir 720P v Kaçış Oyunu (Play or Die) Türkçe Dublaj BLURAY 720P İndir
Moderatör Alımları Başladı! Başvuru yapmak için tıklayın.
Filmbol Premium'da %50'e varan indirim fırsatı!
Kaçış Oyunu (Play or Die) Türkçe Dublaj BLURAY 720P İndir
BroserBros
Kaçış Oyunu (Play or Die) Türkçe Dublaj BLURAY 720P İndir
0
311
  • Derecelendirme: 0/5 - 0 oy
  • 1
  • 2
  • 3
  • 4
  • 5
Konuyu Okuyanlar:1 Ziyaretçi
Şuan Online!
Filmin Yayınlanma Tarihi: 2019 
Şuan Online!
BroserBros Kurucu Admin
*******
Admin

Vizyon Tarihi


16 Ağustos 2019

imdb puanı


3,7 / 1,000

süre


89 dakika

Editör Puanı


4,2 / 10

Video Format: Mkv


Matroska (.MKV)

Ses Kodek: AC3


Audio Coding 3 (AC3)

sürüm


x264 | 720P | WEB-DL

Boyutlar


0,79



Play or Die



Kaçış Oyunu, 'Paranoya' adındaki bir kaçış oyununa katılan iki arkadaşın yaşadıklarını konu ediyor. En büyük kaçış oyunu Paranoya’ya hoş geldiniz. Oyunda sadece iki kural var. Birincisi, oyundaki hiçbir şey gerçek değil, ikincisi ise içinizden biri kişi ölecek. Oyun tutkunu olan Lucas ve Chloe da bu çok özel olan kaçış oyunu Paranoya’ya katılmaya karar verir. İlk bilmeceyi başarıyla çözen ikili, terk edilmiş bir akıl hastanesine götürülür. Korkutucu bir ormanın içindeki bu yerde kendileri gibi finale kalan dört oyuncu daha vardır. Oyuncular, kapatıldıkları yerden kurtulup oyunu tamamlamanın yolunu aramaya başlar. Ancak çok geçmeden içlerinden sadece bir kişinin oradan sağ çıkacağını anlarlar.

Kaçış Oyunu (2019) (Play or Die) Filmi Imdb'den 1,000 kişi tarafından oylandı ve 3,7 puan aldı. Bu film için editör puanı 4,2 olarak belirlendi. İyi Seyirler!

Teknik Detaylar

Kod :
General Unique ID                                : 262146254598196240340882849211273931802 (0xC537883B3DF9E9F148D54B7DD7076C1A) Complete name                            : /root/Desktop/11/Kaçış.Oyunu.2019.720p.WEB-DL.x264.TR.Filmbol.mkv Format                                   : Matroska Format version                           : Version 4 / Version 2 File size                                : 794 MiB Duration                                 : 1h 29mn Overall bit rate                         : 1 243 Kbps Movie name                               : Kaçış Oyunu (2019) - Filmbol.org Encoded date                             : UTC 2020-01-09 00:31:40 Writing application                      : mkvmerge v35.0.0 ('All The Love In The World') 64-bit Writing library                          : libebml v1.3.9 + libmatroska v1.5.2  Video ID                                       : 1 Format                                   : AVC Format/Info                              : Advanced Video Codec Format profile                           : High@L4.1 Format settings, CABAC                   : Yes Format settings, ReFrames                : 4 frames Codec ID                                 : V_MPEG4/ISO/AVC Duration                                 : 1h 29mn Bit rate                                 : 1 050 Kbps Width                                    : 1 280 pixels Height                                   : 534 pixels Display aspect ratio                     : 2.40:1 Original display aspect ratio            : 2.40:1 Frame rate mode                          : Constant Frame rate                               : 24.000 fps Color space                              : YUV Chroma subsampling                       : 4:2:0 Bit depth                                : 8 bits Scan type                                : Progressive Bits/(Pixel*Frame)                       : 0.064 Stream size                              : 670 MiB (84%) Title                                    : 720P - Filmbol.org Writing library                          : x264 core 157 Encoding settings                        : cabac=1 / ref=4 / deblock=1:-1:-1 / analyse=0x3:0x133 / me=umh / subme=9 / psy=1 / psy_rd=1.00:0.15 / mixed_ref=1 / me_range=24 / chroma_me=1 / trellis=2 / 8x8dct=1 / cqm=0 / deadzone=21,11 / fast_pskip=0 / chroma_qp_offset=-3 / threads=17 / lookahead_threads=1 / sliced_threads=0 / nr=0 / decimate=1 / interlaced=0 / bluray_compat=0 / constrained_intra=0 / bframes=3 / b_pyramid=2 / b_adapt=2 / b_bias=0 / direct=3 / weightb=1 / open_gop=0 / weightp=2 / keyint=250 / keyint_min=23 / scenecut=40 / intra_refresh=0 / rc_lookahead=60 / rc=2pass / mbtree=1 / bitrate=1050 / ratetol=1.0 / qcomp=0.60 / qpmin=0 / qpmax=69 / qpstep=4 / cplxblur=20.0 / qblur=0.5 / vbv_maxrate=31250 / vbv_bufsize=31250 / nal_hrd=none / filler=0 / ip_ratio=1.40 / aq=1:1.00 Default                                  : Yes Forced                                   : No  Audio ID                                       : 2 Format                                   : AC-3 Format/Info                              : Audio Coding 3 Mode extension                           : CM (complete main) Format settings, Endianness              : Big Codec ID                                 : A_AC3 Duration                                 : 1h 29mn Bit rate mode                            : Constant Bit rate                                 : 192 Kbps Channel(s)                               : 2 channels Channel positions                        : Front: L R Sampling rate                            : 48.0 KHz Frame rate                               : 31.250 fps (1536 spf) Compression mode                         : Lossy Stream size                              : 123 MiB (15%) Title                                    : Türkçe - Filmbol.org Language                                 : Turkish Default                                  : Yes Forced                                   : No

Film Detayları


Play or Die

Play or Die

Play or Die


Film Fragmanı


Film Detayları

Mini 720P İndir

Uptobox ile indir

1Fichier ile indir

1Fichier'den İndiremiyor musun? Tıklayın!


Mega ile indir

MediaFire ile indir



Konu ile Alakalı Benzer Konular
Konular Yazar Yorumlar Okunma Son Yorum
Filmin Yayınlanma Tarihi: 2020
Larva Adası Filmi (The Larva Island Movie) - 2020 - TR+ORG - 720P BroserBros 0 32 , Saat: 20:06
Son Yorum: BroserBros
Filmin Yayınlanma Tarihi: 2019
Uyanış (Wake Up) - 2019 - TR+ORG - 720P BroserBros 0 33 , Saat: 19:49
Son Yorum: BroserBros
Filmin Yayınlanma Tarihi: 2019
Villains (Villains) - 2019 - TR+ORG - 720P BroserBros 0 61 11-08-2020, Saat: 15:41
Son Yorum: BroserBros
Filmin Yayınlanma Tarihi: 2020
Fatal Affair (Fatal Affair) - 2020 - TR+ORG - 720P BroserBros 0 154 07-08-2020, Saat: 20:13
Son Yorum: BroserBros
Filmin Yayınlanma Tarihi: 2018
Seksi Kadın (MILF) - 2018 - TR+ORG - 720P BroserBros 0 136 07-08-2020, Saat: 19:54
Son Yorum: BroserBros

Hızlı Menü: