Filmbol Forum Film İndir 1080P v Kaçış Odası (Escape Room) Türkçe Dublaj BLURAY 1080P indir
Mega linklerinin şikayet edilmemesi için global erişime kapatıp sadece yorum yapanlara açıyoruz. Bu linkleri gizleme işlemini mecburen yapıyoruz ve yorum yapmanızın siteye değil size faydası vardır. Teşekürler yazmayı çok görüp, Random/Spam mesajlar atarak Mega linklerini açmaya çalışan kullanıcılara önce süresiz ban, devam ederse IP ban atacağız.
Filmbol'da moderatör olmak ister misiniz? Bizimle iletişime geçmek için tıklayın!
Kaçış Odası (Escape Room) Türkçe Dublaj BLURAY 1080P indir
BroserBros
Kaçış Odası (Escape Room) Türkçe Dublaj BLURAY 1080P indir
1
318
  • Derecelendirme: 0/5 - 0 oy
  • 1
  • 2
  • 3
  • 4
  • 5
Konuyu Okuyanlar:1 Ziyaretçi
Şuan Online!
Filmin Yayınlanma Tarihi: 2017 
WWW
Şuan Online!
BroserBros Kurucu Admin
*******
Admin








 Kaçış Odası



Korku filmlerini ve oyunlarını seven ikili Jeff ve Ben ve bu oyunda birlikte olacakları kız arkadaşları Jess ve Angie, Kaçış Odası oyununa katılırlar. Burada hedef, bir odaya kilitli kaldıktan sonra çıkmaktır. Ancak oyun pekte tahmin ettikleri gitmez ve odadan çıkmak hayli zordur....

Kaçış Odası (2017) (Escape Room) Filmi Imdb'den 8,000 kişi tarafından oylandı ve 4,2 puan aldı. Bu film için editör puanı 5,5 olarak belirlendi. İyi Seyirler!

Teknik Detaylar

Kod :
General
Unique ID                                : 336821854563982344029135378353810982766 (0xFD6587916ED9B72F5F92AF1FAC82476E)
Complete name                            : /root/Desktop/7/Kaçış.Odası.2017.1080p.BluRay.x264.TR.Filmbol.mkv
Format                                   : Matroska
Format version                           : Version 4 / Version 2
File size                                : 1.42 GiB
Duration                                 : 1h 29mn
Overall bit rate                         : 2 265 Kbps
Movie name                               : Kaçış Odası (2017) - Filmbol.org
Encoded date                             : UTC 2020-02-24 14:49:12
Writing application                      : mkvmerge v35.0.0 ('All The Love In The World') 64-bit
Writing library                          : libebml v1.3.9 + libmatroska v1.5.2

Video
ID                                       : 1
Format                                   : AVC
Format/Info                              : Advanced Video Codec
Format profile                           : [email protected]
Format settings, CABAC                   : Yes
Format settings, ReFrames                : 2 frames
Codec ID                                 : V_MPEG4/ISO/AVC
Duration                                 : 1h 29mn
Bit rate                                 : 2 070 Kbps
Width                                    : 1 920 pixels
Height                                   : 816 pixels
Display aspect ratio                     : 2.35:1
Frame rate mode                          : Constant
Frame rate                               : 23.976 (24000/1001) fps
Color space                              : YUV
Chroma subsampling                       : 4:2:0
Bit depth                                : 8 bits
Scan type                                : Progressive
Bits/(Pixel*Frame)                       : 0.055
Stream size                              : 1.30 GiB (91%)
Title                                    : 1080P - Filmbol.org
Language                                 : English
Default                                  : Yes
Forced                                   : No

Audio
ID                                       : 2
Format                                   : AC-3
Format/Info                              : Audio Coding 3
Mode extension                           : CM (complete main)
Format settings, Endianness              : Big
Codec ID                                 : A_AC3
Duration                                 : 1h 29mn
Bit rate mode                            : Constant
Bit rate                                 : 192 Kbps
Channel(s)                               : 2 channels
Channel positions                        : Front: L R
Sampling rate                            : 48.0 KHz
Frame rate                               : 31.250 fps (1536 spf)
Compression mode                         : Lossy
Stream size                              : 123 MiB (8%)
Title                                    : Türkçe - Filmbol.org
Language                                 : Turkish
Default                                  : Yes
Forced                                   : No

Film Detayları


 Kaçış Odası

 Kaçış Odası

 Kaçış Odası


Film Fragmanı


Film Detayları

Uptobox ile indir

1Fichier ile indir

1Fichier'den İndiremiyor musun? Tıklayın!


Mega linki şuan da gizli. Kullanıma açmak için konuya yorum yapın ve ardından sayfayı yenileyin.

Mega


MediaFire ile indir

Şuan Online!
Şuan Online!
ahmetyee1 Süper Üye
***
Super Üye

  • Konular3
  • Mesajlar55
  • Rep puanı 0
güzel


Konu ile Alakalı Benzer Konular
Konular Yazar Yorumlar Okunma Son Yorum
Filmin Yayınlanma Tarihi: 2016
The Nice Guys: İyi Adamlar (2016) Türkçe Dublaj 1080P İndir BroserBros 4 1,316 7 saat önce
Son Yorum: ANDREMEDAN
Filmin Yayınlanma Tarihi: 2014
Madagaskar Penguenleri (Penguins of Madagascar) Türkçe Dublaj BLURAY 1080P İndir BroserBros 3 711 10 saat önce
Son Yorum: Omertrans505
Filmin Yayınlanma Tarihi: 2020
Her Zaman Şeytan (The Devil All the Time) - 2020 - TR+ORG - 1080P | tt7395114 TheSteeL 0 19 11 saat önce
Son Yorum: TheSteeL
Filmin Yayınlanma Tarihi: 2020
Baba Aranıyor (Se busca papá) - 2020 - TR+ORG - 1080P | tt12721188 TheSteeL 0 22 , Saat: 21:12
Son Yorum: TheSteeL
Filmin Yayınlanma Tarihi: 2019
Beyaz Kentin Sessizliği (El silencio de la ciudad blanca) - 2019 - TR+ORG - 1080P | tt8393332 BroserBros 1 255 , Saat: 15:38
Son Yorum: BroserBros

Hızlı Menü: