Filmbol Forum Film İndir BRRip XviD v Justice League: Adalet Birliği (Justice League) - 2017 - TR - BRRip XviD
Moderatör Alımları Başladı! Başvuru yapmak için tıklayın.
Filmbol Premium'da %50'e varan indirim fırsatı!
Justice League: Adalet Birliği (Justice League) - 2017 - TR - BRRip XviD
BroserBros
Justice League: Adalet Birliği (Justice League) - 2017 - TR - BRRip XviD
1
65
  • Derecelendirme: 0/5 - 0 oy
  • 1
  • 2
  • 3
  • 4
  • 5
Konuyu Okuyanlar:1 Ziyaretçi
Şuan Online!
Filmin Yayınlanma Tarihi: 2017 
Şuan Online!
BroserBros Kurucu Admin
*******
Admin

Vizyon Tarihi


17 Kasım 2017

imdb puanı


6,4 / 370,000

süre


120 dakika

Editör Puanı


7,0 / 10

Video Format: Avi


Audio Video Interleave (.AVI)

Ses Kodek: MP3


MPEG-1 Audio Layer III (MP3)

sürüm


h263 | BRRip XviD

Boyutlar


1,24 GB



 Justice League: Adalet Birliği



DC'nin evrenini birleştiren Justice League: Adalet Birliği filminde Superman ve Wonder Woman bir birlik kurarlar ancak bu ikilinin gücü karşılarına çıkan yeni tehdit için yeterli değildir. Acil bir şekilde yeni destek toplamaya başlayan ikili, kısa süre içersinde DC evreninin en güçlü birliğini kuracaktır...

Justice League: Adalet Birliği (2017) (Justice League) Filmi Imdb'den 370,000 kişi tarafından oylandı ve 6,4 puan aldı. Bu film için editör puanı 7,0 olarak belirlendi. İyi Seyirler!

Teknik Detaylar

Kod :
General
Complete name                            : /root/Desktop/5/Justice.League.Adalet.Birliği.2017.BRRip.XviD.TR.Filmbol.avi
Format                                  : AVI
Format/Info                              : Audio Video Interleave
File size                                : 1.24 GiB
Duration                                : 2h 0mn
Overall bit rate                        : 1 484 Kbps
Writing application                      : VirtualDubMod 1.5.10.2 (build 2542/release)
Writing library                          : VirtualDubMod build 2542/release

Video
ID                                      : 0
Format                                  : MPEG-4 Visual
Format profile                          : Advanced Simple@L5
Format settings, BVOP                    : 2
Format settings, QPel                    : No
Format settings, GMC                    : No warppoints
Format settings, Matrix                  : Default (MPEG)
Codec ID                                : XVID
Codec ID/Hint                            : XviD
Duration                                : 2h 0mn
Bit rate                                : 1 346 Kbps
Width                                    : 720 pixels
Height                                  : 400 pixels
Display aspect ratio                    : 16:9
Frame rate                              : 23.976 (24000/1001) fps
Color space                              : YUV
Chroma subsampling                      : 4:2:0
Bit depth                                : 8 bits
Scan type                                : Progressive
Compression mode                        : Lossy
Bits/(Pixel*Frame)                      : 0.195
Stream size                              : 1.13 GiB (91%)
Writing library                          : XviD 1.2.1 (UTC 2008-12-04)

Audio
ID                                      : 1
Format                                  : MPEG Audio
Format version                          : Version 1
Format profile                          : Layer 3
Mode                                    : Joint stereo
Mode extension                          : MS Stereo
Codec ID                                : 55
Codec ID/Hint                            : MP3
Duration                                : 2h 0mn
Bit rate mode                            : Constant
Bit rate                                : 128 Kbps
Channel(s)                              : 2 channels
Sampling rate                            : 48.0 KHz
Compression mode                        : Lossy
Stream size                              : 110 MiB (9%)
Alignment                                : Split accross interleaves
Interleave, duration                    : 42 ms (1.00 video frame)
Interleave, preload duration            : 500 ms

Film Detayları


 Justice League: Adalet Birliği

 Justice League: Adalet Birliği

 Justice League: Adalet Birliği


Film Fragmanı


Film Detayları


Uptobox ile indir

1Fichier ile indir

1Fichier'den İndiremiyor musun? Tıklayın!


Mega ile indir

Bunun için üzgünüz ancak, bu linke sadece premium üyeler erişebilir.

Filmbol Cloud

Şuan Offine!
Şuan Offine!
sectechno Süper Üye
***
Super Üye

  • Konular4
  • Mesajlar59
  • Rep puanı 0
Teşekkürler BroserBros.İyi çalışmalar.


Konu ile Alakalı Benzer Konular
Konular Yazar Yorumlar Okunma Son Yorum
Filmin Yayınlanma Tarihi: 2018
Seviye 16 (Level 16) - 2018 - TR - BRRip XviD BroserBros 0 82 04-07-2020, Saat: 21:27
Son Yorum: BroserBros
Filmin Yayınlanma Tarihi: 2018
Küçük Orman (Little Woods) - 2018 - TR - BRRip XviD BroserBros 0 80 04-07-2020, Saat: 19:58
Son Yorum: BroserBros
Filmin Yayınlanma Tarihi: 2018
Suda Ölüm (Dead in the Water) - 2018 - TR - BRRip XviD BroserBros 0 78 04-07-2020, Saat: 19:40
Son Yorum: BroserBros
Filmin Yayınlanma Tarihi: 2019
Aşkı Beklerken (Deux moi - Someone, Somewhere) - 2019 - TR - BRRip XviD BroserBros 0 49 03-07-2020, Saat: 14:17
Son Yorum: BroserBros
Filmin Yayınlanma Tarihi: 2019
Hellboy (Hellboy) - 2019 - TR - BRRip XviD BroserBros 0 58 03-07-2020, Saat: 12:39
Son Yorum: BroserBros

Hızlı Menü: