Filmbol Forum Film İndir 3D v Jurassic World: Yıkılmış Krallık (Fallen Kingdom) Türkçe Dublaj BLURAY 3D İndir
Mega linklerinin şikayet edilmemesi için global erişime kapatıp sadece yorum yapanlara açıyoruz. Bu linkleri gizleme işlemini mecburen yapıyoruz ve yorum yapmanızın siteye değil size faydası vardır. Teşekürler yazmayı çok görüp, Random/Spam mesajlar atarak Mega linklerini açmaya çalışan kullanıcılara önce süresiz ban, devam ederse IP ban atacağız.
Filmbol'da moderatör olmak ister misiniz? Bizimle iletişime geçmek için tıklayın!
Jurassic World: Yıkılmış Krallık (Fallen Kingdom) Türkçe Dublaj BLURAY 3D İndir
BroserBros
Jurassic World: Yıkılmış Krallık (Fallen Kingdom) Türkçe Dublaj BLURAY 3D İndir
11
889
  • Derecelendirme: 1/5 - 1 oy
  • 1
  • 2
  • 3
  • 4
  • 5
Konuyu Okuyanlar:1 Ziyaretçi
Şuan Online!
Filmin Yayınlanma Tarihi: 2018 
WWW
Şuan Online!
BroserBros Kurucu Admin
*******
Admin








Jurassic World: Yıkılmış Krallık




Teknik Detaylar


Kod :
General
Unique ID                                : 76093035789663959178209175453879381684 (0x393EFC518139B1123485EEAAAC1E2EB4)
Complete name                            : /root/Desktop/8/Jurassic.World.Yıkılmış.Krallık.2018.3D.BluRay.x264.TR.Filmbol.mkv
Format                                   : Matroska
Format version                           : Version 4 / Version 2
File size                                : 2.27 GiB
Duration                                 : 2h 8mn
Overall bit rate                         : 2 534 Kbps
Movie name                               : Jurassic World Yıkılmış Krallık (2018) - Filmbol.org
Encoded date                             : UTC 2019-12-29 15:01:00
Writing application                      : mkvmerge v35.0.0 ('All The Love In The World') 64-bit
Writing library                          : libebml v1.3.9 + libmatroska v1.5.2
Cover                                    : Yes
Attachments                              : cover.jpg

Video
ID                                       : 1
Format                                   : AVC
Format/Info                              : Advanced Video Codec
Format profile                           : [email protected]
Format settings, CABAC                   : Yes
Format settings, ReFrames                : 4 frames
Codec ID                                 : V_MPEG4/ISO/AVC
Duration                                 : 2h 8mn
Bit rate                                 : 2 150 Kbps
Width                                    : 1 920 pixels
Height                                   : 800 pixels
Display aspect ratio                     : 2.40:1
Frame rate mode                          : Constant
Frame rate                               : 23.976 (24000/1001) fps
Color space                              : YUV
Chroma subsampling                       : 4:2:0
Bit depth                                : 8 bits
Scan type                                : Progressive
Bits/(Pixel*Frame)                       : 0.058
Stream size                              : 1.93 GiB (85%)
Title                                    : 3D - Filmbol.org
Writing library                          : x264 core 155
Encoding settings                        : cabac=1 / ref=4 / deblock=1:-1:-1 / analyse=0x3:0x133 / me=umh / subme=9 / psy=1 / psy_rd=1.00:0.15 / mixed_ref=1 / me_range=24 / chroma_me=1 / trellis=2 / 8x8dct=1 / cqm=0 / deadzone=21,11 / fast_pskip=0 / chroma_qp_offset=-3 / threads=18 / lookahead_threads=1 / sliced_threads=0 / nr=0 / decimate=1 / interlaced=0 / bluray_compat=0 / constrained_intra=0 / bframes=3 / b_pyramid=2 / b_adapt=2 / b_bias=0 / direct=3 / weightb=1 / open_gop=0 / weightp=2 / keyint=250 / keyint_min=23 / scenecut=40 / intra_refresh=0 / rc_lookahead=60 / rc=2pass / mbtree=1 / bitrate=2150 / ratetol=1.0 / qcomp=0.60 / qpmin=0 / qpmax=69 / qpstep=4 / cplxblur=20.0 / qblur=0.5 / vbv_maxrate=31250 / vbv_bufsize=31250 / nal_hrd=none / filler=0 / ip_ratio=1.40 / aq=1:1.00
Default                                  : Yes
Forced                                   : No

Audio
ID                                       : 2
Format                                   : AC-3
Format/Info                              : Audio Coding 3
Mode extension                           : CM (complete main)
Format settings, Endianness              : Big
Codec ID                                 : A_AC3
Duration                                 : 2h 8mn
Bit rate mode                            : Constant
Bit rate                                 : 384 Kbps
Channel(s)                               : 6 channels
Channel positions                        : Front: L C R, Side: L R, LFE
Sampling rate                            : 48.0 KHz
Frame rate                               : 31.250 fps (1536 spf)
Compression mode                         : Lossy
Stream size                              : 352 MiB (15%)
Title                                    : Türkçe - Filmbol.org
Language                                 : Turkish
Default                                  : Yes
Forced                                   : No

Text
ID                                       : 3
Format                                   : UTF-8
Codec ID                                 : S_TEXT/UTF8
Codec ID/Info                            : UTF-8 Plain Text
Duration                                 : 2h 6mn
Bit rate                                 : 0 bps
Count of elements                        : 40
Stream size                              : 942 Bytes (0%)
Title                                    : KISIM
Language                                 : Turkish
Default                                  : Yes
Forced                                   : Yes

Film Detayları


Jurassic World: Yıkılmış Krallık

Jurassic World: Yıkılmış Krallık

Jurassic World: Yıkılmış Krallık


Film Fragmanı


Film Detayları

Mini 3D İndir



Uptobox ile indir

1Fichier ile indir

1Fichier'den İndiremiyor musun? Tıklayın!


Mega linki şuan da gizli. Kullanıma açmak için konuya yorum yapın ve ardından sayfayı yenileyin.

Mega


MediaFire ile indir

Şuan Offine!
Şuan Offine!
bbalta Yeni Üye
*
Üye

  • Konular0
  • Mesajlar3
  • Rep puanı 0
serinin son filmi, güzel
Şuan Offine!
Şuan Offine!
Polatemirhan Süper Üye
***
Super Üye

  • Konular0
  • Mesajlar26
  • Rep puanı 0
teşekkürler
Şuan Offine!
Şuan Offine!
OgiHan Yeni Üye
*
Üye

  • Konular0
  • Mesajlar1
  • Rep puanı 0
mükemmel film
Şuan Offine!
Şuan Offine!
HerqeLe Yeni Üye
*
Üye

  • Konular0
  • Mesajlar2
  • Rep puanı 0
Big Grin       SİTEDE TOPLASAN 20-25 FİLM VAR


Angry        DÜNYADA 2000-2500 .......!!!!  YÖNETİM İLGİLENMİYECEKSE BANA YETKİ VER FİLME BOĞAYIM BURAYI  ... Big Grin Big Grin
Şuan Offine!
Şuan Offine!
Zirox Yeni Üye
*
Üye

  • Konular0
  • Mesajlar1
  • Rep puanı 0
güzel film
Şuan Offine!
Şuan Offine!
ycanb Uzman Üye
**
Uzman Üye

  • Konular0
  • Mesajlar7
  • Rep puanı 0
teşekkürler film için
Şuan Offine!
Şuan Offine!
Ensartre Yeni Üye
*
Üye

  • Konular0
  • Mesajlar5
  • Rep puanı 0
izleyiverin gari
Şuan Offine!
Şuan Offine!
roj49 Yeni Üye
*
Üye

  • Konular0
  • Mesajlar4
  • Rep puanı 0
Güzel film
Şuan Offine!
Şuan Offine!
rockrock Yeni Üye
*
Üye

  • Konular0
  • Mesajlar5
  • Rep puanı 0
. teşekkürler

teşekkürler

, teşekkürler


Konu ile Alakalı Benzer Konular
Konular Yazar Yorumlar Okunma Son Yorum
Filmin Yayınlanma Tarihi: 2012
Buz Devri 4: Kıtalar Ayrılıyor (Ice Age: Continental Drift) Türkçe Dublaj BLURAY 3D BroserBros 4 368 04-03-2021, Saat: 12:13
Son Yorum: eminnn
Filmin Yayınlanma Tarihi: 2017
Galaksinin Koruyucuları 2 (Guardians of the Galaxy 2) Türkçe Dublaj BLURAY 3D İndir BroserBros 1 362 23-02-2021, Saat: 15:32
Son Yorum: Kingstone
Filmin Yayınlanma Tarihi: 2012
Pi'nin Yaşamı (Life of Pi) Türkçe Dublaj BLURAY 3D indir BroserBros 1 516 23-02-2021, Saat: 15:31
Son Yorum: Kingstone
Filmin Yayınlanma Tarihi: 2014
Galaksinin Koruyucuları (Guardians of the Galaxy) Türkçe Dublaj BLURAY 3D indir BroserBros 2 395 23-02-2021, Saat: 15:25
Son Yorum: Kingstone
Filmin Yayınlanma Tarihi: 2018
Karınca-Adam ve Eşek Arısı (Ant-Man and Wasp) Türkçe Dublaj BLURAY 3D İndir BroserBros 4 782 22-02-2021, Saat: 22:44
Son Yorum: Kingstone

Hızlı Menü: