Filmbol Forum Film İndir BRRip XviD v Jumanji: Yeni Seviye (Jumanji: The Next Level) - 2019 - TR - BRRip XviD
Jumanji: Yeni Seviye (Jumanji: The Next Level) - 2019 - TR - BRRip XviD
BroserBros
Jumanji: Yeni Seviye (Jumanji: The Next Level) - 2019 - TR - BRRip XviD
0
75
  • Derecelendirme: 0/5 - 0 oy
  • 1
  • 2
  • 3
  • 4
  • 5
Konuyu Okuyanlar:1 Ziyaretçi
Şuan Online!
Filmin Yayınlanma Tarihi: 2019 
Şuan Online!
BroserBros Kurucu Admin
*******
Admin

Vizyon Tarihi


13 Aralık 2019

imdb puanı


6,7 / 140,000

süre


123 dakika

Editör Puanı


7,0 / 10

Video Format: Avi


Audio Video Interleave (.AVI)

Ses Kodek: MP3


MPEG-1 Audio Layer III (MP3)

sürüm


h263 | HDRip XviD

Boyutlar


1,50 GB



 Jumanji: Yeni Seviye



Zorlu Jumanjiden kurtulan dört arkadaş artık bu oyunun adını bile ağızlarına almamaktadırlar. Fakat gerçek hayatını sevmeyen bir genç, tekrar Jumanjiye tek başına katılmaya karar verir. Bunu tam da diğer arkadaşları ile bulaşacakları zaman yaptığından, arkadaşları tarafından farkedilir ve artık onları ilkinden daha zorlu bir iş beklemektedir...

Jumanji: Yeni Seviye (2019) (Jumanji: The Next Level) Filmi Imdb'den 140,000 kişi tarafından oylandı ve 6,7 puan aldı. Bu film için editör puanı 7,0 olarak belirlendi. İyi Seyirler!

Teknik Detaylar

Kod :
General
Complete name                            : /root/Desktop/1/Jumanji.Yeni.Seviye.2019.BRRip.XviD.TR.Filmbol.avi
Format                                  : AVI
Format/Info                              : Audio Video Interleave
File size                                : 1.50 GiB
Duration                                : 2h 3mn
Overall bit rate                        : 1 738 Kbps

Video
ID                                      : 0
Format                                  : MPEG-4 Visual
Format profile                          : Simple@L5
Format settings, BVOP                    : No
Format settings, QPel                    : No
Format settings, GMC                    : No warppoints
Format settings, Matrix                  : Default (H.263)
Codec ID                                : XVID
Codec ID/Hint                            : XviD
Duration                                : 2h 3mn
Bit rate                                : 1 597 Kbps
Width                                    : 720 pixels
Height                                  : 302 pixels
Display aspect ratio                    : 2.40:1
Frame rate                              : 23.976 fps
Color space                              : YUV
Chroma subsampling                      : 4:2:0
Bit depth                                : 8 bits
Scan type                                : Progressive
Compression mode                        : Lossy
Bits/(Pixel*Frame)                      : 0.306
Stream size                              : 1.37 GiB (92%)
Writing library                          : Lavc58.35.100

Audio
ID                                      : 1
Format                                  : MPEG Audio
Format version                          : Version 1
Format profile                          : Layer 3
Mode                                    : Joint stereo
Mode extension                          : MS Stereo
Codec ID                                : 55
Codec ID/Hint                            : MP3
Duration                                : 2h 3mn
Bit rate mode                            : Constant
Bit rate                                : 128 Kbps
Channel(s)                              : 2 channels
Sampling rate                            : 48.0 KHz
Compression mode                        : Lossy
Stream size                              : 113 MiB (7%)
Alignment                                : Aligned on interleaves
Interleave, duration                    : 24 ms (0.58 video frame)

Film Detayları


 Jumanji: Yeni Seviye

 Jumanji: Yeni Seviye

 Jumanji: Yeni Seviye


Film Fragmanı


Film Detayları


Uptobox ile indir

1Fichier ile indir

1Fichier'den İndiremiyor musun? Tıklayın!


Mega ile indir

Bunun için üzgünüz ancak, bu linke sadece premium üyeler erişebilir.

Filmbol Cloud



Konu ile Alakalı Benzer Konular
Konular Yazar Yorumlar Okunma Son Yorum
Filmin Yayınlanma Tarihi: 2014
Transformers: Kayıp Çağ (Transformers: Age of Extinction) - 2014 - TR - BRRip XviD BroserBros 0 23 , Saat: 23:15
Son Yorum: BroserBros
Filmin Yayınlanma Tarihi: 2019
Queen & Slim (Queen ve Slim) - 2019 - TR - BRRip XviD BroserBros 0 19 , Saat: 22:53
Son Yorum: BroserBros
Filmin Yayınlanma Tarihi: 2015
Minyonlar (Minions) - 2015 - TR - BRRip XviD BroserBros 0 6 , Saat: 22:34
Son Yorum: BroserBros
Filmin Yayınlanma Tarihi: 2014
Herkül: Özgürlük Savaşçısı (Hercules) - 2014 - TR - BRRip XviD BroserBros 0 11 , Saat: 18:14
Son Yorum: BroserBros
Filmin Yayınlanma Tarihi: 2017
Justice League: Adalet Birliği (Justice League) - 2017 - TR - BRRip XviD BroserBros 1 31 , Saat: 16:59
Son Yorum: sectechno

Hızlı Menü: