Hoşgeldin, Ziyaretçi: Giriş Yap Üye Ol


Konuyu Oyla:
  • Derecelendirme: 0/5 - 0 oy
  • 1
  • 2
  • 3
  • 4
  • 5
Title: Joker (2019) Türkçe Dublaj BRRip XviD İndir
Gösterim Stili
#1
Filmin Yayınlanma Tarihi: 2019 

vizyon tarihi


04 Ekim 2019

imdb puanı


8,6 / 650,000

süre


122 dakika

Editör Puanı


9,0 / 10

Video Format: Avi


Audio Video Interleave (.AVI)

Ses Kodek: MP3


MPEG-1 Audio Layer III (MP3)

sürüm


h263 | BRRip XviD

Boyutlar


1,44



 Joker



Joker, başarısız bir komedyen olan Arthur Fleck'in hayatına odaklanıyor. Toplum tarafından dışlanan bir adam olan Arthur, hayatta yapayalnızdır. Sürekli bir bağ kurma arayışında olan Arthur, yaşamını taktığı iki maske ile geçirir. Gündüzleri, geçimini sağlamak için palyaço maskesini yüzüne takan Arthur, geceleri ise asla üzerinden silip atamayacağı bir maske takar. Babasız büyüyen Arthur’u en yakın arkadaşı olan annesi Happy adıyla çağırır. Bu lakap, Arthur’un içindeki acıyı gizlemesine yardımcı olur. Ancak maruz kaldığı zorbalıklar, onun gitgide toluma aykırı bir adam haline gelmesine neden olur. Yavaş yavaş psikolojik olarak tekinsiz sulara yelken açılan Arthur, bir süre sonra kendisini Gotham Şehri’nde suç ve kaosun içinde bulur. Arthur, zamanla kendi kimliğinden uzaklaşıp Joker karakterine bürünür.

Joker (2019) (2019) Filmi Imdb'den 650,000 kişi tarafından oylandı ve 8,6 puan aldı. Bu film için editör puanı 9,0 olarak belirlendi. İyi Seyirler!

Teknik Detaylar

Kod:
General Complete name                            : /root/Desktop/5/Joker.2019.BRRip.XViD.TR.Filmbol.avi Format                                   : AVI Format/Info                              : Audio Video Interleave File size                                : 1.44 GiB Duration                                 : 2h 1mn Overall bit rate                         : 1 688 Kbps  Video ID                                       : 0 Format                                   : MPEG-4 Visual Format profile                           : Simple@L5 Format settings, BVOP                    : No Format settings, QPel                    : No Format settings, GMC                     : No warppoints Format settings, Matrix                  : Default (H.263) Codec ID                                 : XVID Codec ID/Hint                            : XviD Duration                                 : 2h 1mn Bit rate                                 : 1 547 Kbps Width                                    : 720 pixels Height                                   : 390 pixels Display aspect ratio                     : 1.85:1 Frame rate                               : 23.976 fps Color space                              : YUV Chroma subsampling                       : 4:2:0 Bit depth                                : 8 bits Scan type                                : Progressive Compression mode                         : Lossy Bits/(Pixel*Frame)                       : 0.230 Stream size                              : 1.32 GiB (92%) Writing library                          : Lavc58.35.100  Audio ID                                       : 1 Format                                   : MPEG Audio Format version                           : Version 1 Format profile                           : Layer 3 Mode                                     : Joint stereo Mode extension                           : MS Stereo Codec ID                                 : 55 Codec ID/Hint                            : MP3 Duration                                 : 2h 1mn Bit rate mode                            : Constant Bit rate                                 : 128 Kbps Channel(s)                               : 2 channels Sampling rate                            : 48.0 KHz Compression mode                         : Lossy Stream size                              : 112 MiB (8%) Alignment                                : Aligned on interleaves Interleave, duration                     : 24 ms (0.58 video frame)

Film Detayları


 Joker

 Joker

 Joker


Film Fragmanı


Film Detayları

Brrip İndir

Uptobox ile indir

1Fichier ile indir

Mega linki şuan da gizli. Kullanıma açmak için konuya yorum yapın ve ardından sayfayı yenileyin. Ayrıca bu linki açtığınızda reklamsız olarak erişebileceğinizi unutmayın.

Mega


Mediafire linki şuan da gizli. Kullanıma açmak için konuya yorum yapın ve ardından sayfayı yenileyin. Ayrıca bu linki açtığınızda reklamsız olarak erişebileceğinizi unutmayın.

Mediafire

 
Cevapla
#2
Teşekkürler Admin.Eline,emeğine sağlık,
kolay gelsin.İyi çalışmalar.
 
Cevapla
#3
teşekkür
 
Cevapla
#4
tesekkurler
 
Cevapla
  


Konu ile Alakalı Benzer Konular
Konular Yazar Yorumlar Okunma Son Yorum
Filmin Yayınlanma Tarihi: 2015 Chappie (Chappie) Türkçe Dublaj Bluray Brrip-Xvid İndir BroserBros 3 2,025 09-02-2020, Saat: 04:36
Son Yorum: filmbolcu
Filmin Yayınlanma Tarihi: 2018 Merak Etme, Fazla Uzaklaşamaz (2018) Türkçe Dublaj Brrip Xvid İndir BroserBros 2 249 05-02-2020, Saat: 00:12
Son Yorum: Megalodon
Filmin Yayınlanma Tarihi: 2015 Diriliş (The Revenant) Türkçe Dublaj Brrip-Xvid İndir BroserBros 2 3,127 03-02-2020, Saat: 19:32
Son Yorum: badboys755
Filmin Yayınlanma Tarihi: 2018 Nina Hakkında Herşey (All About Nina) Türkçe Dublaj BRRip XviD İndir BroserBros 0 48 02-02-2020, Saat: 21:14
Son Yorum: BroserBros
Filmin Yayınlanma Tarihi: 2016 Frekans (Cell) Türkçe Dublaj Brrip-Xvid İndir BroserBros 1 872 31-01-2020, Saat: 19:39
Son Yorum: ismail30

Hızlı Menü:


Browsing: 1 Ziyaretçi