Filmbol Forum Film İndir BRRip XviD v Joker (2019) Türkçe Dublaj BRRip XviD İndir
Moderatör Alımları Başladı! Başvuru yapmak için tıklayın.
Filmbol Premium'da %50'e varan indirim fırsatı!
Joker (2019) Türkçe Dublaj BRRip XviD İndir
BroserBros
Joker (2019) Türkçe Dublaj BRRip XviD İndir
3
286
  • Derecelendirme: 0/5 - 0 oy
  • 1
  • 2
  • 3
  • 4
  • 5
Konuyu Okuyanlar:1 Ziyaretçi
Şuan Online!
Filmin Yayınlanma Tarihi: 2019 
Şuan Online!
BroserBros Kurucu Admin
*******
Admin

Vizyon Tarihi


04 Ekim 2019

imdb puanı


8,6 / 650,000

süre


122 dakika

Editör Puanı


9,0 / 10

Video Format: Avi


Audio Video Interleave (.AVI)

Ses Kodek: MP3


MPEG-1 Audio Layer III (MP3)

sürüm


h263 | BRRip XviD

Boyutlar


1,44



 Joker



Joker, başarısız bir komedyen olan Arthur Fleck'in hayatına odaklanıyor. Toplum tarafından dışlanan bir adam olan Arthur, hayatta yapayalnızdır. Sürekli bir bağ kurma arayışında olan Arthur, yaşamını taktığı iki maske ile geçirir. Gündüzleri, geçimini sağlamak için palyaço maskesini yüzüne takan Arthur, geceleri ise asla üzerinden silip atamayacağı bir maske takar. Babasız büyüyen Arthur’u en yakın arkadaşı olan annesi Happy adıyla çağırır. Bu lakap, Arthur’un içindeki acıyı gizlemesine yardımcı olur. Ancak maruz kaldığı zorbalıklar, onun gitgide toluma aykırı bir adam haline gelmesine neden olur. Yavaş yavaş psikolojik olarak tekinsiz sulara yelken açılan Arthur, bir süre sonra kendisini Gotham Şehri’nde suç ve kaosun içinde bulur. Arthur, zamanla kendi kimliğinden uzaklaşıp Joker karakterine bürünür.

Joker (2019) (2019) Filmi Imdb'den 650,000 kişi tarafından oylandı ve 8,6 puan aldı. Bu film için editör puanı 9,0 olarak belirlendi. İyi Seyirler!

Teknik Detaylar

Kod :
General Complete name                            : /root/Desktop/5/Joker.2019.BRRip.XViD.TR.Filmbol.avi Format                                   : AVI Format/Info                              : Audio Video Interleave File size                                : 1.44 GiB Duration                                 : 2h 1mn Overall bit rate                         : 1 688 Kbps  Video ID                                       : 0 Format                                   : MPEG-4 Visual Format profile                           : Simple@L5 Format settings, BVOP                    : No Format settings, QPel                    : No Format settings, GMC                     : No warppoints Format settings, Matrix                  : Default (H.263) Codec ID                                 : XVID Codec ID/Hint                            : XviD Duration                                 : 2h 1mn Bit rate                                 : 1 547 Kbps Width                                    : 720 pixels Height                                   : 390 pixels Display aspect ratio                     : 1.85:1 Frame rate                               : 23.976 fps Color space                              : YUV Chroma subsampling                       : 4:2:0 Bit depth                                : 8 bits Scan type                                : Progressive Compression mode                         : Lossy Bits/(Pixel*Frame)                       : 0.230 Stream size                              : 1.32 GiB (92%) Writing library                          : Lavc58.35.100  Audio ID                                       : 1 Format                                   : MPEG Audio Format version                           : Version 1 Format profile                           : Layer 3 Mode                                     : Joint stereo Mode extension                           : MS Stereo Codec ID                                 : 55 Codec ID/Hint                            : MP3 Duration                                 : 2h 1mn Bit rate mode                            : Constant Bit rate                                 : 128 Kbps Channel(s)                               : 2 channels Sampling rate                            : 48.0 KHz Compression mode                         : Lossy Stream size                              : 112 MiB (8%) Alignment                                : Aligned on interleaves Interleave, duration                     : 24 ms (0.58 video frame)

Film Detayları


 Joker

 Joker

 Joker


Film Fragmanı


Film Detayları

Brrip İndir

Uptobox ile indir

1Fichier ile indir

1Fichier'den İndiremiyor musun? Tıklayın!


Mega ile indir

MediaFire ile indir

Şuan Offine!
Şuan Offine!
sectechno Süper Üye
***
Super Üye

  • Konular9
  • Mesajlar67
  • Rep puanı 0
Teşekkürler Admin.Eline,emeğine sağlık,
kolay gelsin.İyi çalışmalar.
Şuan Offine!
Şuan Offine!
cemsav97 Süper Üye
***
Super Üye

  • Konular0
  • Mesajlar36
  • Rep puanı 0
teşekkür
Şuan Offine!
Şuan Offine!
badboys755 Uzman Üye
**
Uzman Üye

  • Konular0
  • Mesajlar17
  • Rep puanı 0
tesekkurler


Konu ile Alakalı Benzer Konular
Konular Yazar Yorumlar Okunma Son Yorum
Filmin Yayınlanma Tarihi: 2014
Lucy (2014) Türkçe Dublaj BRRip XviD İndir BroserBros 1 262 19-09-2020, Saat: 00:56
Son Yorum: sectechno
Filmin Yayınlanma Tarihi: 2020
The Hunt (Av) - 2020 - TR - BRRip XviD BroserBros 0 311 18-09-2020, Saat: 19:28
Son Yorum: BroserBros
Filmin Yayınlanma Tarihi: 2018
Gözbebeğim (Pupille) - 2018 - TR - BRRip XviD BroserBros 0 311 18-09-2020, Saat: 13:02
Son Yorum: BroserBros
Filmin Yayınlanma Tarihi: 2019
Umut Vadisi (Hope Gap) - 2019 - TR - BRRip XviD BroserBros 0 312 18-09-2020, Saat: 12:50
Son Yorum: BroserBros
Filmin Yayınlanma Tarihi: 2019
Cep Herkülü: Naim Süleymanoğlu (Cep Herkülü: Naim Süleymanoğlu) - 2019 - TR - BRRip XviD BroserBros 0 114 15-09-2020, Saat: 21:51
Son Yorum: BroserBros

Hızlı Menü: