Filmbol Forum Film İndir BRRip XviD v John Wick 3: Parabellum (2019) Türkçe Dublaj Brrip Xvid İndir
Filmbol'da moderatör olmak ister misiniz? Bizimle iletişime geçmek için tıklayın!
John Wick 3: Parabellum (2019) Türkçe Dublaj Brrip Xvid İndir
BroserBros
John Wick 3: Parabellum (2019) Türkçe Dublaj Brrip Xvid İndir
6
630
  • Derecelendirme: 0/5 - 0 oy
  • 1
  • 2
  • 3
  • 4
  • 5
Konuyu Okuyanlar:2 Ziyaretçi
Şuan Online!
Filmin Yayınlanma Tarihi: 2019 
Şuan Online!
BroserBros Kurucu Admin
*******
Admin

indirme türü


Bulut + Premium

Vizyon Tarihi


16 Mayıs 2019

Boyutlar


1,59

diller


[TR]

altyazilar


Yok [Eklenebilir]

Video Format: Avi


Audio Video Interleave (.AVI)

Video Detay


MPEG-4, 1599Kbps, 1,46GB

imdb puanı


7,5 / 10,0 / 210,000

süre


131 dakika

Ses Kodek: MP3


MPEG-1 Audio Layer III (MP3)

Ses Detay


128 Kbps, 2 Kanal, 120Mb

Editör Puanı


8,2

Genislik Yukseklik


720-300

sürüm


h263 | Brrip Xvid




John Wick 3: Parabellum


Film Detayları

John Wick: Chapter 3 - Parabellum, gizli suikastçı birliğinden atılan John Wick'in, kellesi karşılığında ödül almak için peşine düşen suikastçılara karşı verdiği mücadeleyi konu ediyor. John Wick iki nedenden ötürü firaridir. Kellesi üzerine 14 milyon dolarlık açık sözleşme konulmuştur ve temel bir kuralı ihlal etmiştir; Continental Hotel'de birini öldürmüştür. Kurbanı ise açık kontratı sunan Yüksek Masa üyesidir. İşi bitmiş olması gereken John'a otelin yöneticisi Winston tarafından bir saatlik bir kaçış süresi verilir. Ardından üyeliği iptal edilecek, tüm hizmetlerden men edilecek ve diğer üyelerle iletişimi kesilecektir. John'un New York City'den kaçma mücadelesinde güvenebileceği tek şey servis endüstrisidir...

John Wick 3: Parabellum (2019) Filmi Imdb'den 210,000 kişi tarafından oylandı ve 7,5 puan aldı. Bu film için editör puanı 8,2 olarak belirlendi. İyi Seyirler!


Teknik Detaylar


Kod :
General
Complete name                            : John.Wick.Chapter.3.Parabellum.2019.BRRip.XViD.TR.Filmbol.avi
Format                                   : AVI
Format/Info                              : Audio Video Interleave
File size                                : 1.59 GiB
Duration                                 : 2h 10mn
Overall bit rate                         : 1 740 Kbps

Video
ID                                       : 0
Format                                   : MPEG-4 Visual
Format profile                           : Simple@L5
Format settings, BVOP                    : No
Format settings, QPel                    : No
Format settings, GMC                     : No warppoints
Format settings, Matrix                  : Default (H.263)
Codec ID                                 : XVID
Codec ID/Hint                            : XviD
Duration                                 : 2h 10mn
Bit rate                                 : 1 599 Kbps
Width                                    : 720 pixels
Height                                   : 300 pixels
Display aspect ratio                     : 2.40:1
Frame rate                               : 23.976 fps
Color space                              : YUV
Chroma subsampling                       : 4:2:0
Bit depth                                : 8 bits
Scan type                                : Progressive
Compression mode                         : Lossy
Bits/(Pixel*Frame)                       : 0.309
Stream size                              : 1.46 GiB (92%)
Writing library                          : Lavc58.35.100

Audio
ID                                       : 1
Format                                   : MPEG Audio
Format version                           : Version 1
Format profile                           : Layer 3
Mode                                     : Joint stereo
Codec ID                                 : 55
Codec ID/Hint                            : MP3
Duration                                 : 2h 10mn
Bit rate mode                            : Constant
Bit rate                                 : 128 Kbps
Channel(s)                               : 2 channels
Sampling rate                            : 48.0 KHz
Compression mode                         : Lossy
Stream size                              : 120 MiB (7%)
Alignment                                : Aligned on interleaves
Interleave, duration                     : 24 ms (0.58 video frame)

Film Detayları


John Wick 3: Parabellum (2019)

John Wick 3: Parabellum (2019)

John Wick 3: Parabellum (2019)


Film Fragmanı


Film Detayları

Brrip İndir



Uptobox ile indir

1Fichier ile indir

1Fichier'den İndiremiyor musun? Tıklayın!


MediaFire ile indir

Şuan Offine!
Şuan Offine!
sectechno Süper Üye
***
Super Üye

  • Konular9
  • Mesajlar70
  • Rep puanı 0
Teşekkürler Admin.Eline,emeğine sağlık,
kolay gelsin.İyi çalışmalar.
Şuan Offine!
Şuan Offine!
simurg26 Uzman Üye
**
Uzman Üye

  • Konular0
  • Mesajlar8
  • Rep puanı 0
teşekkürler
Şuan Offine!
Şuan Offine!
tayyib5731 Uzman Üye
**
Uzman Üye

  • Konular0
  • Mesajlar16
  • Rep puanı 0
güzel film
Şuan Offine!
Şuan Offine!
refresh23 Yeni Üye
*
Üye

  • Konular0
  • Mesajlar5
  • Rep puanı 0
hoş Big Grin
Şuan Offine!
Şuan Offine!
Moononly Yeni Üye
*
Üye

  • Konular0
  • Mesajlar1
  • Rep puanı 0
Teşekkür ler
Şuan Offine!
Şuan Offine!
ismahilo Uzman Üye
**
Uzman Üye

  • Konular0
  • Mesajlar12
  • Rep puanı 0
teşekkürler


Konu ile Alakalı Benzer Konular
Konular Yazar Yorumlar Okunma Son Yorum
Filmin Yayınlanma Tarihi: 2020
Deathstroke Şövalyeler ve Ejderhalar (Deathstroke Knights & Dragons: The Movie) - 2020 - TR - BRRip XviD BroserBros 0 45 23-11-2020, Saat: 18:30
Son Yorum: BroserBros
Filmin Yayınlanma Tarihi: 2019
15 Dakika Savaş (L'intervention) - 2019 - TR - BRRip XviD BroserBros 0 46 23-11-2020, Saat: 17:42
Son Yorum: BroserBros
Filmin Yayınlanma Tarihi: 2020
Sürprizli Gece (The Sleepover) - 2020 - TR - BRRip XviD BroserBros 0 47 23-11-2020, Saat: 16:18
Son Yorum: BroserBros
Filmin Yayınlanma Tarihi: 2020
Feride (Feride) - 2020 - TR - BRRip XviD BroserBros 0 39 22-11-2020, Saat: 17:58
Son Yorum: BroserBros
Filmin Yayınlanma Tarihi: 2019
Gel Babacığına (Come to Daddy) - 2019 - TR - BRRip XviD BroserBros 0 35 22-11-2020, Saat: 17:43
Son Yorum: BroserBros

Hızlı Menü: