Filmbol Forum Film İndir 1080P v John Wick 3: Parabellum (2019) Türkçe Dublaj BLURAY 1080P İndir
Mega linklerinin şikayet edilmemesi için global erişime kapatıp sadece yorum yapanlara açıyoruz. Bu linkleri gizleme işlemini mecburen yapıyoruz ve yorum yapmanızın siteye değil size faydası vardır. Teşekürler yazmayı çok görüp, Random/Spam mesajlar atarak Mega linklerini açmaya çalışan kullanıcılara önce süresiz ban, devam ederse IP ban atacağız.
Filmbol'da moderatör olmak ister misiniz? Bizimle iletişime geçmek için tıklayın!
John Wick 3: Parabellum (2019) Türkçe Dublaj BLURAY 1080P İndir
BroserBros
John Wick 3: Parabellum (2019) Türkçe Dublaj BLURAY 1080P İndir
22
2247
  • Derecelendirme: 0/5 - 0 oy
  • 1
  • 2
  • 3
  • 4
  • 5
Konuyu Okuyanlar:1 Ziyaretçi
Şuan Online!
Filmin Yayınlanma Tarihi: 2019 
WWW
Şuan Online!
BroserBros Kurucu Admin
*******
Admin





Ses Kodek: AC3


Audio Coding 3 (AC3)






John Wick 3: Parabellum



Teknik Detaylar


Kod :
General
Complete name                            : John.Wick.Chapter.3.Parabellum.2019.1080p.BLURAY.x264.TR.Filmbol.mkv
Format                                   : Matroska
Format version                           : Version 4 / Version 2
File size                                : 2.10 GiB
Duration                                 : 2h 11mn
Overall bit rate                         : 2 293 Kbps
Movie name                               : John Wick 3 (2019) - Filmbol.org
Encoded date                             : UTC 2019-12-19 05:13:05
Writing application                      : mkvmerge v35.0.0 ('All The Love In The World') 64-bit
Writing library                          : libebml v1.3.9 + libmatroska v1.5.2

Video
ID                                       : 1
Format                                   : AVC
Format/Info                              : Advanced Video Codec
Format profile                           : [email protected]
Format settings, CABAC                   : Yes
Format settings, ReFrames                : 4 frames
Codec ID                                 : V_MPEG4/ISO/AVC
Duration                                 : 2h 11mn
Bit rate                                 : 2 100 Kbps
Width                                    : 1 920 pixels
Height                                   : 800 pixels
Display aspect ratio                     : 2.40:1
Frame rate mode                          : Constant
Frame rate                               : 24.000 fps
Color space                              : YUV
Chroma subsampling                       : 4:2:0
Bit depth                                : 8 bits
Scan type                                : Progressive
Bits/(Pixel*Frame)                       : 0.057
Stream size                              : 1.93 GiB (92%)
Title                                    : 1080P - Filmbol.org
Writing library                          : x264 core 152
Default                                  : Yes
Forced                                   : No

Audio
ID                                       : 2
Format                                   : AC-3
Format/Info                              : Audio Coding 3
Mode extension                           : CM (complete main)
Format settings, Endianness              : Big
Codec ID                                 : A_AC3
Duration                                 : 2h 11mn
Bit rate mode                            : Constant
Bit rate                                 : 192 Kbps
Channel(s)                               : 2 channels
Channel positions                        : Front: L R
Sampling rate                            : 48.0 KHz
Frame rate                               : 31.250 fps (1536 spf)
Compression mode                         : Lossy
Stream size                              : 180 MiB (8%)
Title                                    : Türkçe - Filmbol.org
Language                                 : Turkish
Default                                  : Yes
Forced                                   : No

Film Detayları


John Wick 3: Parabellum (2019)

John Wick 3: Parabellum (2019)

John Wick 3: Parabellum (2019)


Film Fragmanı


Film Detayları

Mini 1080P İndir



Uptobox ile indir

1Fichier ile indir

1Fichier'den İndiremiyor musun? Tıklayın!


MediaFire ile indir

Şuan Offine!
Şuan Offine!
caner Süper Üye
***
Super Üye

  • Konular0
  • Mesajlar52
  • Rep puanı 0
teşekkürler
Şuan Offine!
Şuan Offine!
studionrg Uzman Üye
**
Uzman Üye

  • Konular0
  • Mesajlar9
  • Rep puanı 0
Teşekkürler.
Şuan Offine!
Şuan Offine!
emre_3434 Süper Üye
***
Super Üye

  • Konular5
  • Mesajlar54
  • Rep puanı 5
Teşekkürler.
Şuan Offine!
Şuan Offine!
Mender13 Yeni Üye
*
Üye

  • Konular0
  • Mesajlar1
  • Rep puanı 0
Teşekkürler.
Şuan Offine!
Şuan Offine!
cehennem0505 Yeni Üye
*
Üye

  • Konular0
  • Mesajlar4
  • Rep puanı 0
teşekkürler
Şuan Offine!
Şuan Offine!
gazi06 Yeni Üye
*
Üye

  • Konular0
  • Mesajlar1
  • Rep puanı 0
teşekkürler
Şuan Offine!
Şuan Offine!
cimbom44 Yeni Üye
*
Üye

  • Konular0
  • Mesajlar3
  • Rep puanı 0
elinize sağlık
Şuan Offine!
Şuan Offine!
murassai Uzman Üye
**
Uzman Üye

  • Konular0
  • Mesajlar13
  • Rep puanı 0
yoruuuum
Şuan Offine!
Şuan Offine!
musti79 Uzman Üye
**
Uzman Üye

  • Konular0
  • Mesajlar16
  • Rep puanı 0
teşekkürler


Konu ile Alakalı Benzer Konular
Konular Yazar Yorumlar Okunma Son Yorum
Filmin Yayınlanma Tarihi: 2019
Cep Herkülü: Naim Süleymanoğlu (Cep Herkülü: Naim Süleymanoğlu) - 2019 - TR+ORG - 1080P BroserBros 6 1,436 2 saat önce
Son Yorum: memin
Filmin Yayınlanma Tarihi: 2019
Silahlar Fora (Guns Akimbo) - 2019 - TR+ORG - 1080P | tt6902676 TheSteeL 0 38 , Saat: 22:06
Son Yorum: TheSteeL
  İmkansız Canavarlar (Impossible Monsters) - 2019 - TR+ORG - 1080P | tt4328094 TheSteeL 0 38 , Saat: 21:54
Son Yorum: TheSteeL
Filmin Yayınlanma Tarihi: 2017
Ruhlar Evi (Ghost House) - 2017 - TR+ORG - 1080P | tt4365566 TheSteeL 1 110 , Saat: 20:23
Son Yorum: ahmettuncr
Filmin Yayınlanma Tarihi: 2016
Senden Önce Ben (Me Before You) (2016) Türkçe Dublaj 1080P İndir BroserBros 2 2,946 , Saat: 12:23
Son Yorum: mussa

Hızlı Menü: