Filmbol Forum Film İndir BRRip XviD v John Wick 2 (Chapter 2) Türkçe Dublaj Brrip Xvid İndir
Filmbol'da moderatör olmak ister misiniz? Bizimle iletişime geçmek için tıklayın!
John Wick 2 (Chapter 2) Türkçe Dublaj Brrip Xvid İndir
BroserBros
John Wick 2 (Chapter 2) Türkçe Dublaj Brrip Xvid İndir
5
647
  • Derecelendirme: 0/5 - 0 oy
  • 1
  • 2
  • 3
  • 4
  • 5
Konuyu Okuyanlar:1 Ziyaretçi
Şuan Online!
Filmin Yayınlanma Tarihi: 2017 
Şuan Online!
BroserBros Kurucu Admin
*******
Admin

indirme türü


Bulut + Premium

Vizyon Tarihi


10 Şubat 2017

Boyutlar


1,16

diller


[TR]

altyazilar


Yok [Eklenebilir]

Video Format: Avi


Audio Video Interleave (.AVI)

Video Detay


MPEG-4, 1232 Kbps, 1,05GB

imdb puanı


7,5 / 10,0 / 310,000

süre


122 dakika

Ses Kodek: MP3


MPEG-1 Audio Layer III (MP3)

Ses Detay


128 Kbps, 2 Kanal, 112Mb

Editör Puanı


8,7

Genislik Yukseklik


720-304

sürüm


h263 | Brrip Xvid




John Wick 2


Film Detayları

Emekliye ayrılmış olan John Wick can yoldaşı köpeğiyle sakin bir hayat sürmektedir. Ancak başına gelen kimi olaylar onu bir kez daha suç dünyasına iter. Bu kez bu uğurda Roma sokaklarını arşınlaması gerekecektir...
Başarılı aksiyon filmi John Wick'in devam filmi olacak John Wick'in yönetmen koltuğunda Chad Stahelski oturuyor. Filmin başrolünde yine Keanu Reeves'i izleyeceğiz. Filmin kadrosunda Ruby Rose, Bridget Moynahan, Ian McShane, Peter Stormare, Laurence Fishburne, John Leguizamo ve Common gibi isimler de yer alıyor.
 
John Wick 2 (John Wick: Chapter 2) Filmi Imdb'den 310,000 kişi tarafından oylandı ve 7,5 puan aldı. Bu film için editör puanı 8,7 olarak belirlendi. İyi Seyirler!


Teknik Detaylar

Kod :
General
Complete name                            : ohn.Wick.Chapter.2.2017.BRRip.XviD.TR.Filmbol.avi
Format                                   : AVI
Format/Info                              : Audio Video Interleave
File size                                : 1.17 GiB
Duration                                 : 2h 2mn
Overall bit rate                         : 1 373 Kbps

Video
ID                                       : 0
Format                                   : MPEG-4 Visual
Format profile                           : Advanced Simple@L5
Format settings, BVOP                    : 2
Format settings, QPel                    : No
Format settings, GMC                     : No warppoints
Format settings, Matrix                  : Default (H.263)
Codec ID                                 : XVID
Codec ID/Hint                            : XviD
Duration                                 : 2h 2mn
Bit rate                                 : 1 232 Kbps
Width                                    : 720 pixels
Height                                   : 304 pixels
Display aspect ratio                     : 2.35:1
Frame rate                               : 23.976 (23976/1000) fps
Color space                              : YUV
Chroma subsampling                       : 4:2:0
Bit depth                                : 8 bits
Scan type                                : Progressive
Compression mode                         : Lossy
Bits/(Pixel*Frame)                       : 0.235
Stream size                              : 1.05 GiB (90%)
Writing library                          : XviD 66

Audio
ID                                       : 1
Format                                   : MPEG Audio
Format version                           : Version 1
Format profile                           : Layer 3
Mode                                     : Joint stereo
Mode extension                           : MS Stereo
Codec ID                                 : 55
Codec ID/Hint                            : MP3
Duration                                 : 2h 2mn
Bit rate mode                            : Constant
Bit rate                                 : 128 Kbps
Channel(s)                               : 2 channels
Sampling rate                            : 48.0 KHz
Compression mode                         : Lossy
Stream size                              : 112 MiB (9%)
Alignment                                : Aligned on interleaves
Interleave, duration                     : 24 ms (0.58 video frame)



Film Detayları


John Wick 2

John Wick 2

John Wick 2


Film Fragmanı


Film Detayları

Brrip İndir


Uptobox ile indir

1Fichier ile indir

1Fichier'den İndiremiyor musun? Tıklayın!


LetsUpload ile indir

Mega ile indir

MediaFire ile indir

Şuan Offine!
Şuan Offine!
ufukus Yeni Üye
*
Üye

  • Konular0
  • Mesajlar3
  • Rep puanı 0
Emeğinize sağlık
Şuan Offine!
Şuan Offine!
BlackWhite Uzman Üye
**
Uzman Üye

  • Konular0
  • Mesajlar7
  • Rep puanı 0
Şuan Offine!
Şuan Offine!
schoby Yeni Üye
*
Üye

  • Konular0
  • Mesajlar2
  • Rep puanı 0
Emeğe saygı
Şuan Offine!
Şuan Offine!
tayyib5731 Uzman Üye
**
Uzman Üye

  • Konular0
  • Mesajlar18
  • Rep puanı 0
güzel film
Şuan Offine!
Şuan Offine!
kaos37 Yeni Üye
*
Üye

  • Konular0
  • Mesajlar1
  • Rep puanı 0
güzel


Konu ile Alakalı Benzer Konular
Konular Yazar Yorumlar Okunma Son Yorum
Filmin Yayınlanma Tarihi: 2019
Luce (Luce) - 2019 - TR - BRRip XviD BroserBros 0 15 7 saat önce
Son Yorum: BroserBros
Filmin Yayınlanma Tarihi: 2020
Aşka İnan (I Still Believe) - 2020 - TR - BRRip XviD BroserBros 0 14 8 saat önce
Son Yorum: BroserBros
Filmin Yayınlanma Tarihi: 2018
Döndüm Ben (Yerli) - 2018 - TR - BRRip XviD BroserBros 0 35 27-11-2020, Saat: 18:40
Son Yorum: BroserBros
Filmin Yayınlanma Tarihi: 2018
Bana Bir Soygun Yaz 2 (Yerli) - 2018 - TR - BRRip XviD BroserBros 0 27 27-11-2020, Saat: 18:26
Son Yorum: BroserBros
Filmin Yayınlanma Tarihi: 2007
Amerikan Pastası 6: Beta Evi (American Pie: Beta House) - 2007 - TR - BRRip XviD BroserBros 2 247 27-11-2020, Saat: 14:31
Son Yorum: tayyib5731

Hızlı Menü: