Hoşgeldin, Ziyaretçi: Giriş Yap Üye Ol


stats
Adblock'u kapattıysanız tıklayın.
Hoşgeldiniz!
Filmbol'u tercih ettiğiniz için teşekkürler, ancak ablock kullanarak devam edemezsiniz.
Merak etmeyin. Heryerden ardı ardına çıkan reklamlar görmeyeceksiniz :)

Sadece site içi 1 reklam göreceksin ve bu site gezintini etkilemeyecek.
Konuyu Oyla:
  • Derecelendirme: 0/5 - 0 oy
  • 1
  • 2
  • 3
  • 4
  • 5
John Wick 2 (Chapter 2) Türkçe Dublaj BLURAY m1080P İndir
#1
Filmin Yayınlanma Tarihi: 2017 

indirme türü


Bulut + Premium

vizyon tarihi


10 Şubat 2017

Boyutlar


2,08

diller


[TR]

altyazilar


Yok [Eklenebilir]

Video Format: Mkv


Matroska (.MKV)

Video Detay


MPEG-4, 2050 Kbps, 1,75GB

imdb puanı


7,5 / 10,0 / 310,000

süre


122 dakika

Ses Kodek: AC3


Audio Coding 3 (AC3)

Ses Detay


384 Kbps, 6 Kanal, 336Mb

Editör Puanı


8,7

Genislik Yukseklik


1920-800

sürüm


x264 | m1080P





John Wick 2


Film Detayları

Emekliye ayrılmış olan John Wick can yoldaşı köpeğiyle sakin bir hayat sürmektedir. Ancak başına gelen kimi olaylar onu bir kez daha suç dünyasına iter. Bu kez bu uğurda Roma sokaklarını arşınlaması gerekecektir...
Başarılı aksiyon filmi John Wick'in devam filmi olacak John Wick'in yönetmen koltuğunda Chad Stahelski oturuyor. Filmin başrolünde yine Keanu Reeves'i izleyeceğiz. Filmin kadrosunda Ruby Rose, Bridget Moynahan, Ian McShane, Peter Stormare, Laurence Fishburne, John Leguizamo ve Common gibi isimler de yer alıyor.
 
John Wick 2 (John Wick: Chapter 2) Filmi Imdb'den 310,000 kişi tarafından oylandı ve 7,5 puan aldı. Bu film için editör puanı 8,7 olarak belirlendi. İyi Seyirler!


Teknik Detaylar


Kod:
General
Complete name                            : John.Wick.Chapter.2.2017.m1080p.BLURAY.x264.TR.Filmbol.mkv
Format                                   : Matroska
Format version                           : Version 4 / Version 2
File size                                : 2.08 GiB
Duration                                 : 2h 2mn
Overall bit rate                         : 2 435 Kbps
Movie name                               : John Wick 2 (2017) - Filmbol.org
Encoded date                             : UTC 2019-09-02 17:36:16
Writing application                      : mkvmerge v35.0.0 ('All The Love In The World') 64-bit
Writing library                          : libebml v1.3.9 + libmatroska v1.5.2

Video
ID                                       : 1
Format                                   : AVC
Format/Info                              : Advanced Video Codec
Format profile                           : High@L4.1
Format settings, CABAC                   : Yes
Format settings, ReFrames                : 4 frames
Codec ID                                 : V_MPEG4/ISO/AVC
Duration                                 : 2h 2mn
Bit rate                                 : 2 050 Kbps
Width                                    : 1 920 pixels
Height                                   : 800 pixels
Display aspect ratio                     : 2.40:1
Frame rate mode                          : Constant
Frame rate                               : 23.976 (24000/1001) fps
Color space                              : YUV
Chroma subsampling                       : 4:2:0
Bit depth                                : 8 bits
Scan type                                : Progressive
Bits/(Pixel*Frame)                       : 0.056
Stream size                              : 1.75 GiB (84%)
Title                                    : m1080P - Filmbol.org
Writing library                          : x264 core 148
Default                                  : Yes
Forced                                   : No

Audio
ID                                       : 2
Format                                   : AC-3
Format/Info                              : Audio Coding 3
Mode extension                           : CM (complete main)
Format settings, Endianness              : Big
Codec ID                                 : A_AC3
Duration                                 : 2h 2mn
Bit rate mode                            : Constant
Bit rate                                 : 384 Kbps
Channel(s)                               : 6 channels
Channel positions                        : Front: L C R, Side: L R, LFE
Sampling rate                            : 48.0 KHz
Frame rate                               : 31.250 fps (1536 spf)
Compression mode                         : Lossy
Stream size                              : 336 MiB (16%)
Title                                    : Türkçe - Filmbol.org
Language                                 : Turkish
Default                                  : Yes
Forced                                   : No



Film Detayları


John Wick 2

John Wick 2

John Wick 2


Film Fragmanı


Film Detayları

Mini 1080P İndir


MixDrop ile indir

Tusfiles ile indir

LetsUpload ile indir

Filmbol'da aşağıdaki linkler sadece üyelere sunulur. Ayrıca bu linklerde link kısaltma servisleri kullanılmaz, linke tek tık ile reklamsız erişirsiniz. Konu'ya yorum yapın ve sayfayı yenileyin. Reklamsız linkler (en az 3 en fazla 5 link) açılmış olacaktır. Not: Filmbol'a üye olmak tamamen ücretsizdir, en az 3 link kuralı 01.07.2019 tarihinden sonraki paylaşımlar için geçerlidir. Ancak çoğu film için en az bir premium link her zaman bulunur.

Mega

Dosyaco

Dosyaupload

Mediafire

Google Drive
 
Cevapla
#2
süper
 
Cevapla
#3
filmler şahane

Engellemeler olmasa site çok güzel
 
Cevapla
#4
Jejsjs
 
Cevapla
#5
SABIRSIZLIKLA BEKLİYORDUK
 
Cevapla
  


Konu ile Alakalı Benzer Konular
Konular Yazar Yorumlar Okunma Son Yorum
Filmin Yayınlanma Tarihi: 2018 Adaletsiz - Dragged Across Concrete (2018) - Türkçe Dublaj m1080p BluRay İndir NtDTr 2 128 14-09-2019, Saat: 12:07
Son Yorum: farukilbay
Filmin Yayınlanma Tarihi: 2019 Polar (2019) Türkçe Dublaj BLURAY m1080P İndir BroserBros 4 183 11-09-2019, Saat: 23:08
Son Yorum: krhsrysf
Filmin Yayınlanma Tarihi: 2018 Şiddet Eylemleri (Acts of Violence) Türkçe Dublaj BLURAY m1080P İndir BroserBros 1 37 03-09-2019, Saat: 15:07
Son Yorum: Aspirin46
Filmin Yayınlanma Tarihi: 2019 The Hard Way (2019) Türkçe Dublaj BLURAY m1080P İndir BroserBros 3 134 29-08-2019, Saat: 23:41
Son Yorum: arda_26
Filmin Yayınlanma Tarihi: 2018 Overlord Operasyonu (2018) Türkçe Dublaj BLURAY m1080P İndir BroserBros 4 110 28-08-2019, Saat: 16:07
Son Yorum: gmazi658

Hızlı Menü:


Şu anda bu konuyu okuyanlar: 3 Ziyaretçi