Filmbol Forum Film İndir 720P v John Wick 2 (Chapter 2) Türkçe Dublaj BLURAY 720P İndir
Mega linklerinin şikayet edilmemesi için global erişime kapatıp sadece yorum yapanlara açıyoruz. Bu linkleri gizleme işlemini mecburen yapıyoruz ve yorum yapmanızın siteye değil size faydası vardır. Teşekürler yazmayı çok görüp, Random/Spam mesajlar atarak Mega linklerini açmaya çalışan kullanıcılara önce süresiz ban, devam ederse IP ban atacağız.
Filmbol'da moderatör olmak ister misiniz? Bizimle iletişime geçmek için tıklayın!
John Wick 2 (Chapter 2) Türkçe Dublaj BLURAY 720P İndir
BroserBros
John Wick 2 (Chapter 2) Türkçe Dublaj BLURAY 720P İndir
10
1370
  • Derecelendirme: 0/5 - 0 oy
  • 1
  • 2
  • 3
  • 4
  • 5
Konuyu Okuyanlar:2 Ziyaretçi
Şuan Online!
Filmin Yayınlanma Tarihi: 2017 
WWW
Şuan Online!
BroserBros Kurucu Admin
*******
Admin





Ses Kodek: AC3


Audio Coding 3 (AC3)






John Wick 2



Teknik Detaylar

Kod :
General
Complete name                            : John.Wick.Chapter.2.2017.m720p.BLURAY.x264.TR.Filmbol.mkv
Format                                   : Matroska
Format version                           : Version 4 / Version 2
File size                                : 1.10 GiB
Duration                                 : 2h 2mn
Overall bit rate                         : 1 285 Kbps
Movie name                               : John Wick 2 (2017) - Filmbol.org
Encoded date                             : UTC 2019-09-02 17:39:33
Writing application                      : mkvmerge v35.0.0 ('All The Love In The World') 64-bit
Writing library                          : libebml v1.3.9 + libmatroska v1.5.2

Video
ID                                       : 1
Format                                   : AVC
Format/Info                              : Advanced Video Codec
Format profile                           : [email protected]
Format settings, CABAC                   : Yes
Format settings, ReFrames                : 4 frames
Codec ID                                 : V_MPEG4/ISO/AVC
Duration                                 : 2h 2mn
Bit rate                                 : 900 Kbps
Width                                    : 1 280 pixels
Height                                   : 534 pixels
Display aspect ratio                     : 2.40:1
Original display aspect ratio            : 2.40:1
Frame rate mode                          : Constant
Frame rate                               : 23.976 (24000/1001) fps
Color space                              : YUV
Chroma subsampling                       : 4:2:0
Bit depth                                : 8 bits
Scan type                                : Progressive
Bits/(Pixel*Frame)                       : 0.055
Stream size                              : 788 MiB (70%)
Title                                    : 720P - Filmbol.org
Writing library                          : x264 core 148
Default                                  : Yes
Forced                                   : No

Audio
ID                                       : 2
Format                                   : AC-3
Format/Info                              : Audio Coding 3
Mode extension                           : CM (complete main)
Format settings, Endianness              : Big
Codec ID                                 : A_AC3
Duration                                 : 2h 2mn
Bit rate mode                            : Constant
Bit rate                                 : 384 Kbps
Channel(s)                               : 6 channels
Channel positions                        : Front: L C R, Side: L R, LFE
Sampling rate                            : 48.0 KHz
Frame rate                               : 31.250 fps (1536 spf)
Compression mode                         : Lossy
Stream size                              : 336 MiB (30%)
Title                                    : Türkçe - Filmbol.org
Language                                 : Turkish
Default                                  : Yes
Forced                                   : Yes



Film Detayları


John Wick 2

John Wick 2

John Wick 2


Film Fragmanı


Film Detayları

Mini 720P İndir


Uptobox ile indir

1Fichier ile indir

1Fichier'den İndiremiyor musun? Tıklayın!


Mega linki şuan da gizli. Kullanıma açmak için konuya yorum yapın ve ardından sayfayı yenileyin.

Mega


MediaFire ile indir

Şuan Offine!
Şuan Offine!
back-ir Süper Üye
***
Super Üye

  • Konular0
  • Mesajlar29
  • Rep puanı 1
Seriye devam, olay sadece bir köpek değildir!
Şuan Offine!
Şuan Offine!
firatcan141 Uzman Üye
**
Uzman Üye

  • Konular0
  • Mesajlar17
  • Rep puanı 0
hfdfff
Şuan Offine!
Şuan Offine!
yunuser34 Uzman Üye
**
Uzman Üye

  • Konular0
  • Mesajlar15
  • Rep puanı 0
Adam king laaa
Şuan Offine!
Şuan Offine!
kadirhan83 Uzman Üye
**
Uzman Üye

  • Konular0
  • Mesajlar14
  • Rep puanı 0
teşekkürler
Şuan Offine!
Şuan Offine!
kadirhan83 Uzman Üye
**
Uzman Üye

  • Konular0
  • Mesajlar14
  • Rep puanı 0
teşekkürler
Şuan Offine!
Şuan Offine!
skyzindan Yeni Üye
*
Üye

  • Konular0
  • Mesajlar2
  • Rep puanı 0
nice babe
Şuan Offine!
Şuan Offine!
evenstar Uzman Üye
**
Uzman Üye

  • Konular0
  • Mesajlar22
  • Rep puanı 0
teşekkürler
Şuan Offine!
Şuan Offine!
ondes6060 Uzman Üye
**
Uzman Üye

  • Konular0
  • Mesajlar10
  • Rep puanı 0
güzel film tavsiye ederim
Şuan Offine!
Şuan Offine!
draydinozkan Süper Üye
***
Super Üye

  • Konular0
  • Mesajlar57
  • Rep puanı 0
teşekkürler


Konu ile Alakalı Benzer Konular
Konular Yazar Yorumlar Okunma Son Yorum
Filmin Yayınlanma Tarihi: 2019
Uzaydan Gelen Renk (Color Out of Space) - 2019 - TR+ORG - 720P | tt5073642 TheSteeL 0 30 , Saat: 21:00
Son Yorum: TheSteeL
Filmin Yayınlanma Tarihi: 2020
I Care a Lot (I Care a Lot) - 2020 - TR+ORG - 720P | tt9893250 TheSteeL 0 27 , Saat: 20:51
Son Yorum: TheSteeL
Filmin Yayınlanma Tarihi: 2019
Silahlar Fora (Guns Akimbo) - 2019 - TR+ORG - 720P | tt6902676 TheSteeL 2 66 , Saat: 19:57
Son Yorum: TheSteeL
Filmin Yayınlanma Tarihi: 2019
İmkansız Canavarlar (Impossible Monsters) - 2019 - TR+ORG - 720P | tt4328094 TheSteeL 0 50 06-03-2021, Saat: 21:52
Son Yorum: TheSteeL
Filmin Yayınlanma Tarihi: 2018
Venom: Zehirli Öfke (Venom) - 2018 - TR+ORG - 720P | tt1270797 BroserBros 17 2,500 06-03-2021, Saat: 12:17
Son Yorum: BroserBros

Hızlı Menü: