Hoşgeldin, Ziyaretçi: Giriş Yap Üye Ol


stats
Adblock'u kapattıysanız tıklayın.
Hoşgeldiniz!
Filmbol'u tercih ettiğiniz için teşekkürler, ancak ablock kullanarak devam edemezsiniz.
Merak etmeyin. Heryerden ardı ardına çıkan reklamlar görmeyeceksiniz :)

Sadece site içi 1 reklam göreceksin ve bu site gezintini etkilemeyecek.
Konuyu Oyla:
  • Derecelendirme: 0/5 - 0 oy
  • 1
  • 2
  • 3
  • 4
  • 5
Title: Jack Reacher: Asla Geri Dönme (J.R: Never Go Back) Türkçe Dublaj m1080P İndir
Gösterim Stili
#1
Filmin Yayınlanma Tarihi: 2016 

indirme türü


Bulut + Premium

vizyon tarihi


21 Ocak 2016

Boyutlar


1,83GB

diller


[TR]

altyazilar


Yok [Eklenebilir]

Video Format: Mkv


Matroska (.MKV)

Video Detay


MPEG-4, 1999 Kbps, 1,61 GB

imdb puanı


6,1 / 10,0 / 50,000

süre


118 dakika

Ses Kodek: AC3


Audio Coding 3 (AC3)

Ses Detay


224 Kbps, 2 Kanal, 189 Mb

rarsifresi


filmbol.org

Editör Puanı


6,7

Genislik Yukseklik


1920x808

sürüm


x264 | 1080P



Film Detayları

İlk filmin 4 yıl sonrasındaki olayları konu alacak olan devam halkası, eski ordu üssüne geri dönen Jack Reacher'ı konu alacak. Reacher binbaşının isteği üzerine eski üssüne geri gelir. Ancak Reacher geri döndüğünde eski binbaşının vatan hainliğiyle suçlandığını öğrenir. Reacher binbaşı Susan Turner'a kurulan komployu ortaya çıkarmak için cinayetin gerçek suçlularının suçluların peşine düşer. Binbaşının adını temizlemek için büyük bir hükümet komplosu arkasındaki gerçeği açığa çıkarmak zorunda kalacak olan Reacher kanundan kaçar durumdayken hayatını sonsuza dek değiştirecek olan büyük bir sırrı da açığa çıkartmaya çalışır...

Lee Child'ın Never Go Back kitabından uyarlanacak Jack Reacher: Never Go Back'in başrolünde yine Tom Cruise'u izleyeceğiz. Filmin başrolünde ünlü aksiyon oyuncusuna Cobie Smulders eşlik ederken, filmin kadrosunda Robert Knepper, Aldis Hodge, Sue-Lynn Ansari, Danika Yarosh, Holt McCallany ve Julia Holt da yer alıyor.


Teknik Detaylar

Kod:
General
Format                                   : Matroska
Format version                           : Version 4 / Version 2
File size                                : 1.84 GiB
Duration                                 : 1h 58mn
Overall bit rate                         : 2 224 Kbps
Movie name                               : Jack Reacher Never Go Back - Filmbol.org

Video
ID                                       : 1
Format                                   : AVC
Format/Info                              : Advanced Video Codec
Format profile                           : High@L4.1
Format settings, CABAC                   : Yes
Format settings, ReFrames                : 5 frames
Codec ID                                 : V_MPEG4/ISO/AVC
Duration                                 : 1h 58mn
Bit rate                                 : 1 999 Kbps
Width                                    : 1 920 pixels
Height                                   : 808 pixels
Display aspect ratio                     : 2.40:1
Frame rate mode                          : Constant
Frame rate                               : 23.976 fps
Color space                              : YUV
Chroma subsampling                       : 4:2:0
Bit depth                                : 8 bits
Scan type                                : Progressive
Bits/(Pixel*Frame)                       : 0.054
Stream size                              : 1.61 GiB (88%)
Title                                    : 1080P - Filmbol.org
Writing library                          : x264 core 148 r2638 7599210
Default                                  : Yes
Forced                                   : No
Color primaries                          : BT.709
Matrix coefficients                      : BT.709

Audio
ID                                       : 2
Format                                   : AC-3
Format/Info                              : Audio Coding 3
Format profile                           : Dolby Digital
Mode extension                           : CM (complete main)
Format settings, Endianness              : Big
Codec ID                                 : A_AC3
Duration                                 : 1h 58mn
Bit rate mode                            : Constant
Bit rate                                 : 224 Kbps
Channel(s)                               : 2 channels
Channel positions                        : Front: L R
Sampling rate                            : 48.0 KHz
Bit depth                                : 16 bits
Compression mode                         : Lossy
Stream size                              : 189 MiB (10%)
Title                                    : Türkçe - Filmbol.org
Language                                 : Turkish
Default                                  : Yes
Forced                                   : No


Film Detayları


Jack Reacher: Asla Geri Donme

Jack Reacher: Asla Geri Donme

Jack Reacher: Asla Geri Donme

Jack Reacher: Asla Geri Donme

Jack Reacher: Asla Geri Donme


Film Fragmanı


Film Detayları

Mini 1080P İndir


Mega linki şuan da gizli. Kullanıma açmak için konuya yorum yapın ve ardından sayfayı yenileyin. Ayrıca bu linki açtığınızda reklamsız olarak erişebileceğinizi unutmayın.

Mega


Uptobox ile indir

 
Cevapla
  


Konu ile Alakalı Benzer Konular
Konular Yazar Yorumlar Okunma Son Yorum
Filmin Yayınlanma Tarihi: 2018 Mission: Impossible - Yansımalar (Fallout) Türkçe Dublaj m1080P İndir DRMOV 7 450 38 dakika önce
Son Yorum: mertsoydas2
Filmin Yayınlanma Tarihi: 2018 Deadpool 2 Türkçe Dublaj m1080P İndir BroserBros 48 5,503 12-12-2019, Saat: 23:55
Son Yorum: Forsaken
Filmin Yayınlanma Tarihi: 2017 John Wick 2 (Chapter 2) Türkçe Dublaj BLURAY m1080P İndir BroserBros 12 540 07-12-2019, Saat: 18:00
Son Yorum: ısadnasd
Filmin Yayınlanma Tarihi: 2017 Belalı Tanık (2017) Türkçe Dublaj m1080P İndir BroserBros 4 982 06-12-2019, Saat: 22:38
Son Yorum: dejavu
Filmin Yayınlanma Tarihi: 2018 Örümcek Ağındaki Kız (The Girld in the Spider's Web) Türkçe Dublaj m1080P İndir BroserBros 2 164 02-12-2019, Saat: 13:51
Son Yorum: ycanb

Hızlı Menü:


Browsing: 2 Ziyaretçi