Filmbol Forum Film İndir BRRip XviD v İyisi mi Kaç! (Better Start Running) Türkçe Dublaj BRRip XviD indir
Mega linklerinin şikayet edilmemesi için global erişime kapatıp sadece yorum yapanlara açıyoruz. Bu linkleri gizleme işlemini mecburen yapıyoruz ve yorum yapmanızın siteye değil size faydası vardır. Teşekürler yazmayı çok görüp, Random/Spam mesajlar atarak Mega linklerini açmaya çalışan kullanıcılara önce süresiz ban, devam ederse IP ban atacağız.
Filmbol'da moderatör olmak ister misiniz? Bizimle iletişime geçmek için tıklayın!
İyisi mi Kaç! (Better Start Running) Türkçe Dublaj BRRip XviD indir
BroserBros
İyisi mi Kaç! (Better Start Running) Türkçe Dublaj BRRip XviD indir
0
194
  • Derecelendirme: 0/5 - 0 oy
  • 1
  • 2
  • 3
  • 4
  • 5
Konuyu Okuyanlar:1 Ziyaretçi
Şuan Online!
Filmin Yayınlanma Tarihi: 2018 
WWW
Şuan Online!
BroserBros Kurucu Admin
*******
Admin








 İyisi mi Kaç!



Büyük ihtimalle küçük bir yanlış anlaşılmadan dolayı katil olan bir çocuk ve sevgilisi, FBI ile büyük kaçma kovalama oyununda kendini bulur. Sorunlar bunun ardından peş peşe gelir ve yakaları pislikten kurtulmaz. Oyuncular, Analeight Tipton (Stephanie), Maria Bello (Agent McFadden), Jane Seymour (Mary Linson) ve Jeremy Irons (Garrison)

İyisi mi Kaç! (2018) (Better Start Running) Filmi Imdb'den 600 kişi tarafından oylandı ve 5,2 puan aldı. Bu film için editör puanı 5,0 olarak belirlendi. İyi Seyirler!

Teknik Detaylar

Kod :
General
Complete name                            : /root/Desktop/1/iyisi.mi.Kaç!.2018.HDRip.XViD.TR.Filmbol.avi
Format                                   : AVI
Format/Info                              : Audio Video Interleave
File size                                : 1 010 MiB
Duration                                 : 1h 32mn
Overall bit rate                         : 1 529 Kbps

Video
ID                                       : 0
Format                                   : MPEG-4 Visual
Format profile                           : Advanced [email protected]
Format settings, BVOP                    : 1
Format settings, QPel                    : No
Format settings, GMC                     : No warppoints
Format settings, Matrix                  : Default (MPEG)
Codec ID                                 : XVID
Codec ID/Hint                            : XviD
Duration                                 : 1h 32mn
Bit rate                                 : 1 388 Kbps
Width                                    : 720 pixels
Height                                   : 404 pixels
Display aspect ratio                     : 16:9
Frame rate                               : 23.976 (23976/1000) fps
Color space                              : YUV
Chroma subsampling                       : 4:2:0
Bit depth                                : 8 bits
Scan type                                : Progressive
Compression mode                         : Lossy
Bits/(Pixel*Frame)                       : 0.199
Stream size                              : 917 MiB (91%)
Writing library                          : XviD 64

Audio
ID                                       : 1
Format                                   : MPEG Audio
Format version                           : Version 1
Format profile                           : Layer 3
Mode                                     : Joint stereo
Mode extension                           : MS Stereo
Codec ID                                 : 55
Codec ID/Hint                            : MP3
Duration                                 : 1h 32mn
Bit rate mode                            : Constant
Bit rate                                 : 128 Kbps
Channel(s)                               : 2 channels
Sampling rate                            : 48.0 KHz
Compression mode                         : Lossy
Stream size                              : 84.6 MiB (8%)
Alignment                                : Aligned on interleaves
Interleave, duration                     : 24 ms (0.58 video frame)

Film Detayları


 İyisi mi Kaç!

 İyisi mi Kaç!

 İyisi mi Kaç!


Film Fragmanı


Film Detayları

Brrip İndir

Uptobox ile indir

1Fichier ile indir

1Fichier'den İndiremiyor musun? Tıklayın!


Mega linki şuan da gizli. Kullanıma açmak için konuya yorum yapın ve ardından sayfayı yenileyin.

Mega


MediaFire ile indir



Konu ile Alakalı Benzer Konular
Konular Yazar Yorumlar Okunma Son Yorum
Filmin Yayınlanma Tarihi: 2020
Yarını Yokmuş Gibi (Palm Springs) - 2020 - TR - BRRip XviD | tt9484998 TheSteeL 0 7 55 dakika önce
Son Yorum: TheSteeL
Filmin Yayınlanma Tarihi: 2020
Polis (Police) - 2020 - TR - BRRip XviD | tt9850344 TheSteeL 0 7 1 saat önce
Son Yorum: TheSteeL
Filmin Yayınlanma Tarihi: 2019
Midway (Midway) - 2019 - TR - BRRip XviD BroserBros 1 111 7 saat önce
Son Yorum: Furkan61
Filmin Yayınlanma Tarihi: 2016
X-Men: Apocalypse (2016) Türkçe Dublaj Brrip-Xvid İndir BroserBros 2 2,382 04-03-2021, Saat: 22:37
Son Yorum: Furkan61
Filmin Yayınlanma Tarihi: 2002
Akıl Oyunları (A Beautiful Mind) - 2001 - TR - BRRip XviD | tt0268978 BroserBros 2 251 04-03-2021, Saat: 18:03
Son Yorum: Furkan61

Hızlı Menü: