Hoşgeldin, Ziyaretçi: Giriş Yap Üye Ol


Konuyu Oyla:
  • Derecelendirme: 0/5 - 0 oy
  • 1
  • 2
  • 3
  • 4
  • 5
Title: İstilacılar (Snatchers) Türkçe Dublaj BRRip XviD indir
Gösterim Stili
#1
Filmin Yayınlanma Tarihi: 2019 

vizyon tarihi


08 Ekim 2019

imdb puanı


5,3 / 1,000

süre


96 dakika

Editör Puanı


5,0 / 10

Video Format: Avi


Audio Video Interleave (.AVI)

Ses Kodek: MP3


MPEG-1 Audio Layer III (MP3)

sürüm


h263 | WEBDL XviD

Boyutlar


1,16



 İstilacılar



Santchers yönetmenliğini Stephen Cedars ve Benji Kleiman’ın, senaristliğini ise Scott Hinckley, Elli Legerski’nin yaptığı kurgu ve korku karışımı türde bir filmdir. Filmde erkek arkadaşı ile ayrılmış olan kızın, erkek arkadaşıyla tekrar birleşmesi ve sonrasında yaşadığı tuhaf olaylar konu alınmaktadır. Ana karakterimiz sevgilisinin ilk tanıştığı sevgilisi olmadığını ve kendisinin de hamile kaldığını anlar. Ama bu hamilelik sıradan bir hamilelik değildir. Bu anormal süreci anlayabilmek adına birçok farklı kişilerle görüşür ve sevgilisinin kısa süre önce yaz tatiline gittiği bir yerden yalnızca kendisinin değil yanında başka bir şeyin de geldiğini anlar. Ama artık çok geçtir, acaba ana karakterimizin karnında gelişimini sürdüren bu şey tam olarak nedir? Ana karakterimize ek olarak acaba bu hamilelik dünyayı nelere gebe bırakacak?

İstilacılar (2019) (Snatchers) Filmi Imdb'den 1,000 kişi tarafından oylandı ve 5,3 puan aldı. Bu film için editör puanı 5,0 olarak belirlendi. İyi Seyirler!

Teknik Detaylar

Kod:
General
Complete name                            : /root/Desktop/4/İstilacılar.2019.WEB-DL.XviD.TR.Filmbol.avi
Format                                   : AVI
Format/Info                              : Audio Video Interleave
File size                                : 1.16 GiB
Duration                                 : 1h 36mn
Overall bit rate                         : 1 714 Kbps

Video
ID                                       : 0
Format                                   : MPEG-4 Visual
Format profile                           : Simple@L5
Format settings, BVOP                    : No
Format settings, QPel                    : No
Format settings, GMC                     : No warppoints
Format settings, Matrix                  : Default (H.263)
Codec ID                                 : XVID
Codec ID/Hint                            : XviD
Duration                                 : 1h 36mn
Bit rate                                 : 1 573 Kbps
Width                                    : 720 pixels
Height                                   : 302 pixels
Display aspect ratio                     : 2.40:1
Frame rate                               : 23.976 fps
Color space                              : YUV
Chroma subsampling                       : 4:2:0
Bit depth                                : 8 bits
Scan type                                : Progressive
Compression mode                         : Lossy
Bits/(Pixel*Frame)                       : 0.302
Stream size                              : 1.06 GiB (92%)
Writing library                          : Lavc58.1.100

Audio
ID                                       : 1
Format                                   : MPEG Audio
Format version                           : Version 1
Format profile                           : Layer 3
Mode                                     : Joint stereo
Mode extension                           : MS Stereo
Codec ID                                 : 55
Codec ID/Hint                            : MP3
Duration                                 : 1h 36mn
Bit rate mode                            : Constant
Bit rate                                 : 128 Kbps
Channel(s)                               : 2 channels
Sampling rate                            : 48.0 KHz
Compression mode                         : Lossy
Stream size                              : 88.7 MiB (7%)
Alignment                                : Aligned on interleaves
Interleave, duration                     : 24 ms (0.58 video frame)

Film Detayları


 İstilacılar

 İstilacılar

 İstilacılar


Film Fragmanı


Film Detayları


Uptobox ile indir

1Fichier ile indir

Mega linki şuan da gizli. Kullanıma açmak için konuya yorum yapın ve ardından sayfayı yenileyin. Ayrıca bu linki açtığınızda reklamsız olarak erişebileceğinizi unutmayın.

Mega


Mediafire linki şuan da gizli. Kullanıma açmak için konuya yorum yapın ve ardından sayfayı yenileyin. Ayrıca bu linki açtığınızda reklamsız olarak erişebileceğinizi unutmayın.

Mediafire

 
Cevapla
  


Konu ile Alakalı Benzer Konular
Konular Yazar Yorumlar Okunma Son Yorum
Filmin Yayınlanma Tarihi: 2014 Ölüm Alfabesi (Ouija) Türkçe Dublaj BRRip XviD indir BroserBros 1 93 16-02-2020, Saat: 01:31
Son Yorum: filmbolcu
Filmin Yayınlanma Tarihi: 2016 Ölüm Alfabesi: Kötülüğün Başlangıcı Türkçe Dublaj Brrip-Xvid İndir BroserBros 3 1,369 15-02-2020, Saat: 13:00
Son Yorum: pentagramnet
Filmin Yayınlanma Tarihi: 2018 Seni Hala Görüyorum (I Still See You) Türkçe Dublaj BRRip XviD indir BroserBros 0 89 15-02-2020, Saat: 12:44
Son Yorum: BroserBros
Filmin Yayınlanma Tarihi: 2009 Halloween II: Katliam (Hallowwen 2) Türkçe Dublaj BRRip XviD indir BroserBros 0 64 13-02-2020, Saat: 19:22
Son Yorum: BroserBros
Filmin Yayınlanma Tarihi: 2007 Halloween 9 (Cadılar Bayramı) Türkçe Dublaj BRRip XviD İndir BroserBros 1 94 08-02-2020, Saat: 22:22
Son Yorum: BqRs

Hızlı Menü:


Browsing: 1 Ziyaretçi