Filmbol Forum Film İndir 720P v İstilacılar (Snatchers) Türkçe Dublaj BLURAY 720P indir
Mega linklerinin şikayet edilmemesi için global erişime kapatıp sadece yorum yapanlara açıyoruz. Bu linkleri gizleme işlemini mecburen yapıyoruz ve yorum yapmanızın siteye değil size faydası vardır. Teşekürler yazmayı çok görüp, Random/Spam mesajlar atarak Mega linklerini açmaya çalışan kullanıcılara önce süresiz ban, devam ederse IP ban atacağız.
Filmbol'da moderatör olmak ister misiniz? Bizimle iletişime geçmek için tıklayın!
İstilacılar (Snatchers) Türkçe Dublaj BLURAY 720P indir
BroserBros
İstilacılar (Snatchers) Türkçe Dublaj BLURAY 720P indir
2
295
  • Derecelendirme: 0/5 - 0 oy
  • 1
  • 2
  • 3
  • 4
  • 5
Konuyu Okuyanlar:1 Ziyaretçi
Şuan Online!
Filmin Yayınlanma Tarihi: 2019 
WWW
Şuan Online!
BroserBros Kurucu Admin
*******
Admin








 İstilacılar



Santchers yönetmenliğini Stephen Cedars ve Benji Kleiman’ın, senaristliğini ise Scott Hinckley, Elli Legerski’nin yaptığı kurgu ve korku karışımı türde bir filmdir. Filmde erkek arkadaşı ile ayrılmış olan kızın, erkek arkadaşıyla tekrar birleşmesi ve sonrasında yaşadığı tuhaf olaylar konu alınmaktadır. Ana karakterimiz sevgilisinin ilk tanıştığı sevgilisi olmadığını ve kendisinin de hamile kaldığını anlar. Ama bu hamilelik sıradan bir hamilelik değildir. Bu anormal süreci anlayabilmek adına birçok farklı kişilerle görüşür ve sevgilisinin kısa süre önce yaz tatiline gittiği bir yerden yalnızca kendisinin değil yanında başka bir şeyin de geldiğini anlar. Ama artık çok geçtir, acaba ana karakterimizin karnında gelişimini sürdüren bu şey tam olarak nedir? Ana karakterimize ek olarak acaba bu hamilelik dünyayı nelere gebe bırakacak?

İstilacılar (2019) (Snatchers) Filmi Imdb'den 1,000 kişi tarafından oylandı ve 5,3 puan aldı. Bu film için editör puanı 5,0 olarak belirlendi. İyi Seyirler!

Teknik Detaylar

Kod :
General
Unique ID                                : 223026918406695960807589914841912459416 (0xA7C96C0BE328E34C08C5107163284098)
Complete name                            : /root/Desktop/4/İstilacılar.2019.720p.WEB-DL.x264.TR.Filmbol.mkv
Format                                   : Matroska
Format version                           : Version 4 / Version 2
File size                                : 1.01 GiB
Duration                                 : 1h 36mn
Overall bit rate                         : 1 489 Kbps
Movie name                               : İstilacılar (2019) - Filmbol.org
Encoded date                             : UTC 2020-02-14 07:58:21
Writing application                      : mkvmerge v35.0.0 ('All The Love In The World') 64-bit
Writing library                          : libebml v1.3.9 + libmatroska v1.5.2

Video
ID                                       : 1
Format                                   : AVC
Format/Info                              : Advanced Video Codec
Format profile                           : [email protected]
Format settings, CABAC                   : Yes
Format settings, ReFrames                : 2 frames
Codec ID                                 : V_MPEG4/ISO/AVC
Duration                                 : 1h 36mn
Bit rate                                 : 1 295 Kbps
Width                                    : 1 280 pixels
Height                                   : 576 pixels
Display aspect ratio                     : 2.2:1
Original display aspect ratio            : 2.2:1
Frame rate mode                          : Constant
Frame rate                               : 23.976 (24000/1001) fps
Color space                              : YUV
Chroma subsampling                       : 4:2:0
Bit depth                                : 8 bits
Scan type                                : Progressive
Bits/(Pixel*Frame)                       : 0.073
Stream size                              : 897 MiB (87%)
Title                                    : 720P - Filmbol.org
Default                                  : Yes
Forced                                   : No

Audio
ID                                       : 2
Format                                   : AC-3
Format/Info                              : Audio Coding 3
Mode extension                           : CM (complete main)
Format settings, Endianness              : Big
Codec ID                                 : A_AC3
Duration                                 : 1h 36mn
Bit rate mode                            : Constant
Bit rate                                 : 192 Kbps
Channel(s)                               : 2 channels
Channel positions                        : Front: L R
Sampling rate                            : 48.0 KHz
Frame rate                               : 31.250 fps (1536 spf)
Compression mode                         : Lossy
Stream size                              : 133 MiB (13%)
Title                                    : Türkçe - Filmbol.org
Language                                 : Turkish
Default                                  : Yes
Forced                                   : No

Film Detayları


 İstilacılar

 İstilacılar

 İstilacılar


Film Fragmanı


Film Detayları

Uptobox ile indir

1Fichier ile indir

1Fichier'den İndiremiyor musun? Tıklayın!


Mega linki şuan da gizli. Kullanıma açmak için konuya yorum yapın ve ardından sayfayı yenileyin.

Mega


MediaFire ile indir

Şuan Offine!
Şuan Offine!
djilo83 Yeni Üye
*
Üye

  • Konular0
  • Mesajlar3
  • Rep puanı 0
17.02.2020
Şuan Offine!
Şuan Offine!
firatcan140 Süper Üye
***
Super Üye

  • Konular0
  • Mesajlar27
  • Rep puanı 0
52152152v1


Konu ile Alakalı Benzer Konular
Konular Yazar Yorumlar Okunma Son Yorum
Filmin Yayınlanma Tarihi: 2018
Venom: Zehirli Öfke (Venom) - 2018 - TR+ORG - 720P | tt1270797 BroserBros 17 2,437 2 saat önce
Son Yorum: BroserBros
Filmin Yayınlanma Tarihi: 2016
Batman v Superman: Adaletin Şafağı (Batman v Superman: Dawn of Justice) - 2016 - TR+ORG - 720P | tt2975590 BroserBros 3 1,794 2 saat önce
Son Yorum: BroserBros
Filmin Yayınlanma Tarihi: 2020
Yarını Yokmuş Gibi (Palm Springs) - 2020 - TR+ORG - 720P | tt9484998 TheSteeL 0 26 , Saat: 01:18
Son Yorum: TheSteeL
Filmin Yayınlanma Tarihi: 2020
Polis (Police) - 2020 - TR+ORG - 720P | tt9850344 TheSteeL 0 24 , Saat: 01:05
Son Yorum: TheSteeL
Filmin Yayınlanma Tarihi: 2007
Harry Potter ve Zümrüdüanka Yoldaşlığı (2007) Türkçe Dublaj BLURAY m720P İndir BroserBros 7 1,037 , Saat: 01:31
Son Yorum: gonenoya

Hızlı Menü: