Hoşgeldin, Ziyaretçi: Giriş Yap Üye Ol


Konuyu Oyla:
  • Derecelendirme: 0/5 - 0 oy
  • 1
  • 2
  • 3
  • 4
  • 5
Title: İstilacılar (Snatchers) Türkçe Dublaj BLURAY 1080P indir
Gösterim Stili
#1
Filmin Yayınlanma Tarihi: 2019 

vizyon tarihi


08 Ekim 2019

imdb puanı


5,3 / 1,000

süre


96 dakika

Editör Puanı


5,0 / 10

Video Format: Mkv


Matroska (.MKV)

Ses Kodek: AC3


Audio Coding 3 (AC3)

sürüm


x264 | 1080P | WEB-DL

Boyutlar


1,51



 İstilacılar



Santchers yönetmenliğini Stephen Cedars ve Benji Kleiman’ın, senaristliğini ise Scott Hinckley, Elli Legerski’nin yaptığı kurgu ve korku karışımı türde bir filmdir. Filmde erkek arkadaşı ile ayrılmış olan kızın, erkek arkadaşıyla tekrar birleşmesi ve sonrasında yaşadığı tuhaf olaylar konu alınmaktadır. Ana karakterimiz sevgilisinin ilk tanıştığı sevgilisi olmadığını ve kendisinin de hamile kaldığını anlar. Ama bu hamilelik sıradan bir hamilelik değildir. Bu anormal süreci anlayabilmek adına birçok farklı kişilerle görüşür ve sevgilisinin kısa süre önce yaz tatiline gittiği bir yerden yalnızca kendisinin değil yanında başka bir şeyin de geldiğini anlar. Ama artık çok geçtir, acaba ana karakterimizin karnında gelişimini sürdüren bu şey tam olarak nedir? Ana karakterimize ek olarak acaba bu hamilelik dünyayı nelere gebe bırakacak?

İstilacılar (2019) (Snatchers) Filmi Imdb'den 1,000 kişi tarafından oylandı ve 5,3 puan aldı. Bu film için editör puanı 5,0 olarak belirlendi. İyi Seyirler!

Teknik Detaylar

Kod:
General
Unique ID                                : 29209210334002347030538798749207260029 (0x15F97D41AD8E4999BB2A925266846B7D)
Complete name                            : /root/Desktop/4/İstilacılar.2019.1080p.WEB-DL.x264.TR.Filmbol.mkv
Format                                   : Matroska
Format version                           : Version 4 / Version 2
File size                                : 1.51 GiB
Duration                                 : 1h 36mn
Overall bit rate                         : 2 237 Kbps
Movie name                               : İstilacılar (2019) - Filmbol.org
Encoded date                             : UTC 2020-02-14 07:58:50
Writing application                      : mkvmerge v35.0.0 ('All The Love In The World') 64-bit
Writing library                          : libebml v1.3.9 + libmatroska v1.5.2

Video
ID                                       : 1
Format                                   : AVC
Format/Info                              : Advanced Video Codec
Format profile                           : Main@L4
Format settings, CABAC                   : Yes
Format settings, ReFrames                : 2 frames
Format settings, GOP                     : M=1, N=25
Codec ID                                 : V_MPEG4/ISO/AVC
Duration                                 : 1h 36mn
Bit rate                                 : 2 043 Kbps
Width                                    : 1 920 pixels
Height                                   : 872 pixels
Display aspect ratio                     : 2.2:1
Frame rate mode                          : Constant
Frame rate                               : 23.976 (24000/1001) fps
Color space                              : YUV
Chroma subsampling                       : 4:2:0
Bit depth                                : 8 bits
Scan type                                : Progressive
Bits/(Pixel*Frame)                       : 0.051
Stream size                              : 1.38 GiB (91%)
Title                                    : 1080P - Filmbol.org
Default                                  : Yes
Forced                                   : No

Audio
ID                                       : 2
Format                                   : AC-3
Format/Info                              : Audio Coding 3
Mode extension                           : CM (complete main)
Format settings, Endianness              : Big
Codec ID                                 : A_AC3
Duration                                 : 1h 36mn
Bit rate mode                            : Constant
Bit rate                                 : 192 Kbps
Channel(s)                               : 2 channels
Channel positions                        : Front: L R
Sampling rate                            : 48.0 KHz
Frame rate                               : 31.250 fps (1536 spf)
Compression mode                         : Lossy
Stream size                              : 133 MiB (9%)
Title                                    : Türkçe - Filmbol.org
Language                                 : Turkish
Default                                  : Yes
Forced                                   : No

Film Detayları


 İstilacılar

 İstilacılar

 İstilacılar


Film Fragmanı


Film Detayları

Uptobox ile indir

1Fichier ile indir

Mega linki şuan da gizli. Kullanıma açmak için konuya yorum yapın ve ardından sayfayı yenileyin. Ayrıca bu linki açtığınızda reklamsız olarak erişebileceğinizi unutmayın.

Mega


Mediafire linki şuan da gizli. Kullanıma açmak için konuya yorum yapın ve ardından sayfayı yenileyin. Ayrıca bu linki açtığınızda reklamsız olarak erişebileceğinizi unutmayın.

Mediafire

 
Cevapla
#2
GÜZEL EĞİ
 
Cevapla
  


Konu ile Alakalı Benzer Konular
Konular Yazar Yorumlar Okunma Son Yorum
Filmin Yayınlanma Tarihi: 2014 Ölüm Alfabesi (Ouija) Türkçe Dublaj BLURAY 1080P indir BroserBros 1 72 16-02-2020, Saat: 09:10
Son Yorum: ahmetyee1
Filmin Yayınlanma Tarihi: 2018 Seni Hala Görüyorum (I Still See You) Türkçe Dublaj BLURAY 1080P indir BroserBros 1 70 15-02-2020, Saat: 18:16
Son Yorum: ahmetyee1
Filmin Yayınlanma Tarihi: 2009 Halloween II: Katliam (Hallowwen 2) Türkçe Dublaj BLURAY 1080P indir BroserBros 1 78 13-02-2020, Saat: 22:13
Son Yorum: emre_3434
  Halloween 9 (Cadılar Bayramı) Türkçe Dublaj BLURAY 1080P İndir BroserBros 2 102 13-02-2020, Saat: 04:59
Son Yorum: emre_3434
Filmin Yayınlanma Tarihi: 2002 Halloween 8 (Korku Bayramı 2) Türkçe Dublaj BLURAY 1080P İndir BroserBros 1 82 13-02-2020, Saat: 03:59
Son Yorum: emre_3434

Hızlı Menü:


Browsing: 1 Ziyaretçi