Hoşgeldin, Ziyaretçi: Giriş Yap Üye Ol


stats
Adblock'u kapattıysanız tıklayın.
Hoşgeldiniz!
Filmbol'u tercih ettiğiniz için teşekkürler, ancak ablock kullanarak devam edemezsiniz.
Merak etmeyin. Heryerden ardı ardına çıkan reklamlar görmeyeceksiniz :)

Sadece site içi 1 reklam göreceksin ve bu site gezintini etkilemeyecek.
Konuyu Oyla:
  • Derecelendirme: 0/5 - 0 oy
  • 1
  • 2
  • 3
  • 4
  • 5
Title: Isn't it Romantic (2019) Türkçe Dublaj BLURAY m1080P İndir
Gösterim Stili
#1
Filmin Yayınlanma Tarihi: 2019 

indirme türü


Bulut + Premium

vizyon tarihi


13 Şubat 2019

Boyutlar


1,57

diller


[TR]

altyazilar


Yok [Eklenebilir]

Video Format: Mkv


Matroska (.MKV)

Video Detay


MPEG-4, 2142 Kbps, 1,33GB

imdb puanı


5,9 / 10,0 / 45,000

süre


89 dakika

Ses Kodek: AC3


Audio Coding 3 (AC3)

Ses Detay


384 Kbps, 6 Kanal, 244Mb

Editör Puanı


5,7

Genislik Yukseklik


1920-1080

sürüm


x264 | NFWebDL-m1080P





isnt it romantic


Film Detayları

New York'lu mimar Natalie çocukluğunda romantik komedi filmlerini sevse de artık acı gerçekle yüzleşmiştir; romantik komediler sahte ve gerçeklikten uzaktır. Artık yetişkinliğe erişmiş olan Natalie'nin tek hedefi şehrin bir sonraki gökdelenlerine imzasını atabilmektir. İşinde yükselmek isteyen genç kadın ne kadar çabalasa da şehri güzelleştirecek binalar tasarlamak yerine ofisin getir götür işleriyle meşgul edilmektedir. Ancak bu da yetmezmiş gibi günün birinde bir soyguncuyla karşı karşıya gelir ve bilincini kaybeder. Uyandığında ise hayatı en büyük kabusuna dönüşmüştür; bir romantik komedi filmine... Romantik komedi filmlerinin klişelerini birbiri ardına yaşayan genç kadın, kendini bir anda anlamlandıramadığı bir dünyada bulur. Bir film sahnesine dönüşen bu hayatında filmin sonu mutlu olacak mıdır?


Teknik Detaylar

Kod:
General
Complete name                            : Isnt.It.Romantic.2019.m1080p.NF.WEB-DL.x264.TR.Filmbol.mkv
Format                                   : Matroska
Format version                           : Version 4 / Version 2
File size                                : 1.57 GiB
Duration                                 : 1h 28mn
Overall bit rate                         : 2 528 Kbps
Movie name                               : Isn't It Romantic - Filmbol.org
Encoded date                             : UTC 2019-07-28 16:19:18
Writing application                      : mkvmerge v35.0.0 ('All The Love In The World') 64-bit
Writing library                          : libebml v1.3.9 + libmatroska v1.5.2

Video
ID                                       : 1
Format                                   : AVC
Format/Info                              : Advanced Video Codec
Format profile                           : Main@L4
Format settings, CABAC                   : Yes
Format settings, ReFrames                : 2 frames
Format settings, GOP                     : N=1
Codec ID                                 : V_MPEG4/ISO/AVC
Duration                                 : 1h 28mn
Bit rate                                 : 2 142 Kbps
Width                                    : 1 920 pixels
Height                                   : 1 080 pixels
Display aspect ratio                     : 16:9
Frame rate mode                          : Constant
Frame rate                               : 23.976 (24000/1001) fps
Color space                              : YUV
Chroma subsampling                       : 4:2:0
Bit depth                                : 8 bits
Scan type                                : Progressive
Bits/(Pixel*Frame)                       : 0.043
Stream size                              : 1.33 GiB (85%)
Title                                    : m1080P - Filmbol.org
Default                                  : Yes
Forced                                   : No

Audio
ID                                       : 2
Format                                   : AC-3
Format/Info                              : Audio Coding 3
Mode extension                           : CM (complete main)
Format settings, Endianness              : Big
Codec ID                                 : A_AC3
Duration                                 : 1h 28mn
Bit rate mode                            : Constant
Bit rate                                 : 384 Kbps
Channel(s)                               : 6 channels
Channel positions                        : Front: L C R, Side: L R, LFE
Sampling rate                            : 48.0 KHz
Frame rate                               : 31.250 fps (1536 spf)
Compression mode                         : Lossy
Stream size                              : 244 MiB (15%)
Title                                    : Türkçe - Filmbol.org
Language                                 : Turkish
Default                                  : Yes
Forced                                   : No



Film Detayları


isnt it romantic

isnt it romantic

isnt it romantic


Film Fragmanı


Film Detayları

Mini 1080P İndir


Uptobox ile indir

Tusfiles ile indir

Filerio ile indir

LetsUpload ile indir

MegaUp ile indir

Filmbol'da aşağıdaki linkler sadece üyelere sunulur. Ayrıca bu linklerde link kısaltma servisleri kullanılmaz, linke tek tık ile reklamsız erişirsiniz. Konu'ya yorum yapın ve sayfayı yenileyin. Reklamsız linkler (en az 3 en fazla 5 link) açılmış olacaktır. Not: Filmbol'a üye olmak tamamen ücretsizdir, en az 3 link kuralı 01.07.2019 tarihinden sonraki paylaşımlar için geçerlidir. Ancak çoğu film için en az bir premium link her zaman bulunur.

Mega

Dosyaco

Dosyaupload

Mediafire

Google Drive
 
Cevapla
#2
ELLERİNİZE SAĞLIK
 
Cevapla
  


Konu ile Alakalı Benzer Konular
Konular Yazar Yorumlar Okunma Son Yorum
Filmin Yayınlanma Tarihi: 2018 Şipşak Aile (Instant Family) Türkçe Dublaj BLURAY m1080P İndir BroserBros 4 202 15-09-2019, Saat: 00:01
Son Yorum: kimsinsen
Filmin Yayınlanma Tarihi: 2019 Erkekler Ne İster? (What Men Want?) Türkçe Dublaj BLURAY m1080P İndir BroserBros 0 116 19-07-2019, Saat: 22:36
Son Yorum: BroserBros

Hızlı Menü:


Browsing: 1 Ziyaretçi