Filmbol Forum Film İndir BRRip XviD v İskoçya Kraliçesi Mary (Mary Queen of Scots) Türkçe Dublaj BRRip XviD İndir
Mega linklerinin şikayet edilmemesi için global erişime kapatıp sadece yorum yapanlara açıyoruz. Bu linkleri gizleme işlemini mecburen yapıyoruz ve yorum yapmanızın siteye değil size faydası vardır. Teşekürler yazmayı çok görüp, Random/Spam mesajlar atarak Mega linklerini açmaya çalışan kullanıcılara önce süresiz ban, devam ederse IP ban atacağız.
Filmbol'da moderatör olmak ister misiniz? Bizimle iletişime geçmek için tıklayın!
İskoçya Kraliçesi Mary (Mary Queen of Scots) Türkçe Dublaj BRRip XviD İndir
BroserBros
İskoçya Kraliçesi Mary (Mary Queen of Scots) Türkçe Dublaj BRRip XviD İndir
0
186
  • Derecelendirme: 0/5 - 0 oy
  • 1
  • 2
  • 3
  • 4
  • 5
Konuyu Okuyanlar:1 Ziyaretçi
Şuan Online!
Filmin Yayınlanma Tarihi: 2018 
WWW
Şuan Online!
BroserBros Kurucu Admin
*******
Admin








 İskoçya Kraliçesi Mary



İskoçya Kraliçesi Mary, dul kalmasının ardından yurdu İskoçya'ya geri dönen ve hakkı olan tahtı geri almaya çalışan Mary Stuart'ın hikayesini konu ediyor. 16 yaşında Fransa Kraliçesi olan Mary Stuart, 18 yaşında dul kalır ve omuzlarına yeniden evlenme baskısı yüklenir. Ancak Mary'nin buna hiç niyeti yoktur. Genç kadın bunun yerine, yurdu İskoçya'ya geri döner ve hakkı olan tahtı geri ister. Fakat İskoçya ve İngiltere'nin yönetimi, etkileyici genç Kraliçe Elizabeth'in yönetimi altındadır. İki genç kraliçe, birbirlerinden bambaşka hayatlar yaşasa ve çok farklı karakterlerde olsalar da, ilk başta omuz omuza vererek iki ülkede barışı sağlamayı hedeflerler. Ancak zamanla kıskançlık ve hırs ön plana çıkmaya başlar. İki genç kadın, erkek egemen bir dünyada, hem tahtta hem de aşkta rakip konumundayken, bağımsızlığa karşı evlilik oyununu nasıl oynayacaklarına karar vermelidir. Bu süreçte yaşanan ihanetler, isyanlar ve entrikalar tarihin akışını belirleyecektir...

İskoçya Kraliçesi Mary (2018) (Mary Queen of Scots) Filmi Imdb'den 35,000 kişi tarafından oylandı ve 6,3 puan aldı. Bu film için editör puanı 6,0 olarak belirlendi. İyi Seyirler!

Teknik Detaylar

Kod :
General
Complete name                            : /root/Desktop/6/Iskoçya.Kralicesi.Mary.2018.BRRip.XviD.TR.Filmbol.avi
Format                                   : AVI
Format/Info                              : Audio Video Interleave
File size                                : 1.44 GiB
Duration                                 : 2h 3mn
Overall bit rate                         : 1 666 Kbps

Video
ID                                       : 0
Format                                   : MPEG-4 Visual
Format profile                           : [email protected]
Format settings, BVOP                    : No
Format settings, QPel                    : No
Format settings, GMC                     : No warppoints
Format settings, Matrix                  : Default (H.263)
Codec ID                                 : XVID
Codec ID/Hint                            : XviD
Duration                                 : 2h 3mn
Bit rate                                 : 1 525 Kbps
Width                                    : 720 pixels
Height                                   : 302 pixels
Display aspect ratio                     : 2.40:1
Frame rate                               : 23.976 fps
Color space                              : YUV
Chroma subsampling                       : 4:2:0
Bit depth                                : 8 bits
Scan type                                : Progressive
Compression mode                         : Lossy
Bits/(Pixel*Frame)                       : 0.292
Stream size                              : 1.32 GiB (92%)
Writing library                          : Lavc58.35.100

Audio
ID                                       : 1
Format                                   : MPEG Audio
Format version                           : Version 1
Format profile                           : Layer 3
Mode                                     : Joint stereo
Mode extension                           : MS Stereo
Codec ID                                 : 55
Codec ID/Hint                            : MP3
Duration                                 : 2h 3mn
Bit rate mode                            : Constant
Bit rate                                 : 128 Kbps
Channel(s)                               : 2 channels
Sampling rate                            : 48.0 KHz
Compression mode                         : Lossy
Stream size                              : 113 MiB (8%)
Alignment                                : Aligned on interleaves
Interleave, duration                     : 24 ms (0.58 video frame)

Film Detayları


 İskoçya Kraliçesi Mary

 İskoçya Kraliçesi Mary

 İskoçya Kraliçesi Mary


Film Fragmanı


Film Detayları

Brrip İndir

Uptobox ile indir

1Fichier ile indir

1Fichier'den İndiremiyor musun? Tıklayın!


Mega linki şuan da gizli. Kullanıma açmak için konuya yorum yapın ve ardından sayfayı yenileyin.

Mega


MediaFire ile indir



Konu ile Alakalı Benzer Konular
Konular Yazar Yorumlar Okunma Son Yorum
  Her Zaman Şeytan (The Devil All the Time) - 2020 - TR - BRRip XviD | tt7395114 TheSteeL 0 20 8 saat önce
Son Yorum: TheSteeL
Filmin Yayınlanma Tarihi: 2020
Baba Aranıyor (Se busca papá) - 2020 - TR - BRRip XviD | tt12721188 TheSteeL 0 17 8 saat önce
Son Yorum: TheSteeL
Filmin Yayınlanma Tarihi: 1999
Yeşil Yol (The Green Mile) - 1999 - TR - BRRip XviD | tt0120689 BroserBros 2 244 , Saat: 15:54
Son Yorum: Furkan61
Filmin Yayınlanma Tarihi: 2019
Beyaz Kentin Sessizliği (El silencio de la ciudad blanca) - 2019 - TR - BRRip XviD | tt8393332 BroserBros 1 243 , Saat: 15:38
Son Yorum: BroserBros
Filmin Yayınlanma Tarihi: 2014
Frankenstein: Ölümsüzlerin Savaşı (I, Frankenstein) - 2014 - TR - BRRip XviD | tt1418377 BroserBros 2 294 , Saat: 15:29
Son Yorum: BroserBros

Hızlı Menü: