Filmbol Forum Film İndir 1080P v İskoçya Kraliçesi Mary (Mary Queen of Scots) Türkçe Dublaj BLURAY 1080P İndir
Mega linklerinin şikayet edilmemesi için global erişime kapatıp sadece yorum yapanlara açıyoruz. Bu linkleri gizleme işlemini mecburen yapıyoruz ve yorum yapmanızın siteye değil size faydası vardır. Teşekürler yazmayı çok görüp, Random/Spam mesajlar atarak Mega linklerini açmaya çalışan kullanıcılara önce süresiz ban, devam ederse IP ban atacağız.
Filmbol'da moderatör olmak ister misiniz? Bizimle iletişime geçmek için tıklayın!
İskoçya Kraliçesi Mary (Mary Queen of Scots) Türkçe Dublaj BLURAY 1080P İndir
BroserBros
İskoçya Kraliçesi Mary (Mary Queen of Scots) Türkçe Dublaj BLURAY 1080P İndir
0
234
  • Derecelendirme: 0/5 - 0 oy
  • 1
  • 2
  • 3
  • 4
  • 5
Konuyu Okuyanlar:1 Ziyaretçi
Şuan Online!
Filmin Yayınlanma Tarihi: 2018 
WWW
Şuan Online!
BroserBros Kurucu Admin
*******
Admin








 İskoçya Kraliçesi Mary



İskoçya Kraliçesi Mary, dul kalmasının ardından yurdu İskoçya'ya geri dönen ve hakkı olan tahtı geri almaya çalışan Mary Stuart'ın hikayesini konu ediyor. 16 yaşında Fransa Kraliçesi olan Mary Stuart, 18 yaşında dul kalır ve omuzlarına yeniden evlenme baskısı yüklenir. Ancak Mary'nin buna hiç niyeti yoktur. Genç kadın bunun yerine, yurdu İskoçya'ya geri döner ve hakkı olan tahtı geri ister. Fakat İskoçya ve İngiltere'nin yönetimi, etkileyici genç Kraliçe Elizabeth'in yönetimi altındadır. İki genç kraliçe, birbirlerinden bambaşka hayatlar yaşasa ve çok farklı karakterlerde olsalar da, ilk başta omuz omuza vererek iki ülkede barışı sağlamayı hedeflerler. Ancak zamanla kıskançlık ve hırs ön plana çıkmaya başlar. İki genç kadın, erkek egemen bir dünyada, hem tahtta hem de aşkta rakip konumundayken, bağımsızlığa karşı evlilik oyununu nasıl oynayacaklarına karar vermelidir. Bu süreçte yaşanan ihanetler, isyanlar ve entrikalar tarihin akışını belirleyecektir...

İskoçya Kraliçesi Mary (2018) (Mary Queen of Scots) Filmi Imdb'den 35,000 kişi tarafından oylandı ve 6,3 puan aldı. Bu film için editör puanı 6,0 olarak belirlendi. İyi Seyirler!

Teknik Detaylar

Kod :
General
Unique ID                                : 2435798372296261240116438159764271300 (0x1D51E21BE13B06AB4A0FAA15DECB0C4)
Complete name                            : /root/Desktop/6/Iskoçya.Kraliçesi.Mary.2018.1080p.BluRay.x264.TR.Filmbol.mkv
Format                                   : Matroska
Format version                           : Version 4 / Version 2
File size                                : 2.03 GiB
Duration                                 : 2h 3mn
Overall bit rate                         : 2 343 Kbps
Movie name                               : İskoçya Kralicesi Mary (2018) - Filmbol.org
Encoded date                             : UTC 2020-01-27 08:27:16
Writing application                      : mkvmerge v35.0.0 ('All The Love In The World') 64-bit
Writing library                          : libebml v1.3.9 + libmatroska v1.5.2

Video
ID                                       : 1
Format                                   : AVC
Format/Info                              : Advanced Video Codec
Format profile                           : [email protected]
Format settings, CABAC                   : Yes
Format settings, ReFrames                : 4 frames
Codec ID                                 : V_MPEG4/ISO/AVC
Duration                                 : 2h 3mn
Bit rate                                 : 2 150 Kbps
Width                                    : 1 920 pixels
Height                                   : 800 pixels
Display aspect ratio                     : 2.40:1
Frame rate mode                          : Constant
Frame rate                               : 23.976 (24000/1001) fps
Color space                              : YUV
Chroma subsampling                       : 4:2:0
Bit depth                                : 8 bits
Scan type                                : Progressive
Bits/(Pixel*Frame)                       : 0.058
Stream size                              : 1.86 GiB (92%)
Title                                    : 1080P - Filmbol.org
Writing library                          : x264 core 157
Encoding settings                        : cabac=1 / ref=4 / deblock=1:-1:-1 / analyse=0x3:0x133 / me=umh / subme=9 / psy=1 / psy_rd=1.00:0.15 / mixed_ref=1 / me_range=24 / chroma_me=1 / trellis=2 / 8x8dct=1 / cqm=0 / deadzone=21,11 / fast_pskip=0 / chroma_qp_offset=-3 / threads=18 / lookahead_threads=1 / sliced_threads=0 / nr=0 / decimate=1 / interlaced=0 / bluray_compat=0 / constrained_intra=0 / bframes=3 / b_pyramid=2 / b_adapt=2 / b_bias=0 / direct=3 / weightb=1 / open_gop=0 / weightp=2 / keyint=250 / keyint_min=23 / scenecut=40 / intra_refresh=0 / rc_lookahead=60 / rc=2pass / mbtree=1 / bitrate=2150 / ratetol=1.0 / qcomp=0.60 / qpmin=0 / qpmax=69 / qpstep=4 / cplxblur=20.0 / qblur=0.5 / vbv_maxrate=31250 / vbv_bufsize=31250 / nal_hrd=none / filler=0 / ip_ratio=1.40 / aq=1:1.00
Default                                  : Yes
Forced                                   : No

Audio
ID                                       : 2
Format                                   : AC-3
Format/Info                              : Audio Coding 3
Mode extension                           : CM (complete main)
Format settings, Endianness              : Big
Codec ID                                 : A_AC3
Duration                                 : 2h 3mn
Bit rate mode                            : Constant
Bit rate                                 : 192 Kbps
Channel(s)                               : 2 channels
Channel positions                        : Front: L R
Sampling rate                            : 48.0 KHz
Frame rate                               : 31.250 fps (1536 spf)
Compression mode                         : Lossy
Stream size                              : 170 MiB (8%)
Title                                    : Türkçe - Filmbol.org
Language                                 : Turkish
Default                                  : Yes
Forced                                   : No

Film Detayları


 İskoçya Kraliçesi Mary

 İskoçya Kraliçesi Mary

 İskoçya Kraliçesi Mary

[/fragman]

Film Detayları

Mini 1080P İndir

Uptobox ile indir

1Fichier ile indir

1Fichier'den İndiremiyor musun? Tıklayın!


Mega linki şuan da gizli. Kullanıma açmak için konuya yorum yapın ve ardından sayfayı yenileyin.

Mega


MediaFire ile indir



Konu ile Alakalı Benzer Konular
Konular Yazar Yorumlar Okunma Son Yorum
Filmin Yayınlanma Tarihi: 2018
Parti Kraliçesi (Life of The Party) Türkçe Dublaj m1080P İndir BroserBros 1 687 1 saat önce
Son Yorum: windowsxp
Filmin Yayınlanma Tarihi: 2019
Ölüm Takımı (The Kill Team) - 2019 - TR+ORG - 1080P | tt6196936 TheSteeL 2 60 6 saat önce
Son Yorum: TheSteeL
Filmin Yayınlanma Tarihi: 2007
Harry Potter ve Zümrüdüanka Yoldaşlığı (2007) Türkçe Dublaj BLURAY m1080P İndir BroserBros 18 1,441 7 saat önce
Son Yorum: bjk1001
Filmin Yayınlanma Tarihi: 2005
Harry Potter ve Ateş Kadehi (Goblet of Fire) Türkçe Dublaj BLURAY 1080P İndir BroserBros 30 2,890 9 saat önce
Son Yorum: bjk1001
Filmin Yayınlanma Tarihi: 2016
The Nice Guys: İyi Adamlar (2016) Türkçe Dublaj 1080P İndir BroserBros 4 1,317 , Saat: 01:44
Son Yorum: ANDREMEDAN

Hızlı Menü: