Filmbol Forum Film İndir 1080P v İntikam (Revenge) Türkçe Dublaj BLURAY 1080P İndir
Mega linklerinin şikayet edilmemesi için global erişime kapatıp sadece yorum yapanlara açıyoruz. Bu linkleri gizleme işlemini mecburen yapıyoruz ve yorum yapmanızın siteye değil size faydası vardır. Teşekürler yazmayı çok görüp, Random/Spam mesajlar atarak Mega linklerini açmaya çalışan kullanıcılara önce süresiz ban, devam ederse IP ban atacağız.
Filmbol'da moderatör olmak ister misiniz? Bizimle iletişime geçmek için tıklayın!
İntikam (Revenge) Türkçe Dublaj BLURAY 1080P İndir
BroserBros
İntikam (Revenge) Türkçe Dublaj BLURAY 1080P İndir
2
357
  • Derecelendirme: 0/5 - 0 oy
  • 1
  • 2
  • 3
  • 4
  • 5
Konuyu Okuyanlar:1 Ziyaretçi
Şuan Online!
Filmin Yayınlanma Tarihi: 2018 
WWW
Şuan Online!
BroserBros Kurucu Admin
*******
Admin





Ses Kodek: AC3


Audio Coding 3 (AC3)






İntikam



Teknik Detaylar


Kod :
General
Complete name                            : İntikam.2017.1080p.BLURAY.x264.TR.Filmbol.mkv
Format                                   : Matroska
Format version                           : Version 4 / Version 2
File size                                : 1.78 GiB
Duration                                 : 1h 48mn
Overall bit rate                         : 2 343 Kbps
Movie name                               : İntikam (2017) - Filmbol.org
Encoded date                             : UTC 2019-12-20 04:14:17
Writing application                      : mkvmerge v35.0.0 ('All The Love In The World') 64-bit
Writing library                          : libebml v1.3.9 + libmatroska v1.5.2

Video
ID                                       : 1
Format                                   : AVC
Format/Info                              : Advanced Video Codec
Format profile                           : [email protected]
Format settings, CABAC                   : Yes
Format settings, ReFrames                : 4 frames
Codec ID                                 : V_MPEG4/ISO/AVC
Duration                                 : 1h 48mn
Bit rate                                 : 2 150 Kbps
Width                                    : 1 920 pixels
Height                                   : 800 pixels
Display aspect ratio                     : 2.40:1
Frame rate mode                          : Constant
Frame rate                               : 23.976 (24000/1001) fps
Color space                              : YUV
Chroma subsampling                       : 4:2:0
Bit depth                                : 8 bits
Scan type                                : Progressive
Bits/(Pixel*Frame)                       : 0.058
Stream size                              : 1.63 GiB (92%)
Title                                    : 1080P - Filmbol.org
Writing library                          : x264 core 155
Default                                  : Yes
Forced                                   : No

Audio
ID                                       : 2
Format                                   : AC-3
Format/Info                              : Audio Coding 3
Mode extension                           : CM (complete main)
Format settings, Endianness              : Big
Codec ID                                 : A_AC3
Duration                                 : 1h 48mn
Bit rate mode                            : Constant
Bit rate                                 : 192 Kbps
Channel(s)                               : 2 channels
Channel positions                        : Front: L R
Sampling rate                            : 48.0 KHz
Frame rate                               : 31.250 fps (1536 spf)
Compression mode                         : Lossy
Stream size                              : 149 MiB (8%)
Title                                    : Türkçe - Filmbol.org
Language                                 : Turkish
Default                                  : Yes
Forced                                   : No

Film Detayları


İntikam

İntikam

İntikam


Film Fragmanı


Film Detayları

Mini 1080P İndir



Uptobox ile indir

1Fichier ile indir

1Fichier'den İndiremiyor musun? Tıklayın!


Mega linki şuan da gizli. Kullanıma açmak için konuya yorum yapın ve ardından sayfayı yenileyin.

Mega


MediaFire ile indir

Şuan Offine!
Şuan Offine!
Aspirin46 Süper Üye
***
Super Üye

  • Konular0
  • Mesajlar54
  • Rep puanı 0
SÜPER
Şuan Offine!
Şuan Offine!
Polatemirhan Süper Üye
***
Super Üye

  • Konular0
  • Mesajlar26
  • Rep puanı 0
Teşekkürler


Konu ile Alakalı Benzer Konular
Konular Yazar Yorumlar Okunma Son Yorum
Filmin Yayınlanma Tarihi: 2020
Yarını Yokmuş Gibi (Palm Springs) - 2020 - TR+ORG - 1080P | tt9484998 TheSteeL 0 2 1 dakika önce
Son Yorum: TheSteeL
Filmin Yayınlanma Tarihi: 2020
Polis (Police) - 2020 - TR+ORG - 1080P | tt9850344 TheSteeL 0 3 14 dakika önce
Son Yorum: TheSteeL
Filmin Yayınlanma Tarihi: 2019
Sırlar Kitabı (Les traducteurs) - 2019 - TR+ORG - 1080P | tt6270534 TheSteeL 1 70 3 saat önce
Son Yorum: ahmettuncr
Filmin Yayınlanma Tarihi: 2019
Ölüm Takımı (The Kill Team) - 2019 - TR+ORG - 1080P | tt6196936 TheSteeL 2 66 04-03-2021, Saat: 16:02
Son Yorum: TheSteeL
Filmin Yayınlanma Tarihi: 2007
Harry Potter ve Zümrüdüanka Yoldaşlığı (2007) Türkçe Dublaj BLURAY m1080P İndir BroserBros 18 1,444 04-03-2021, Saat: 14:38
Son Yorum: bjk1001

Hızlı Menü: