Hoşgeldin, Ziyaretçi: Giriş Yap Üye Ol


stats
Adblock'u kapattıysanız tıklayın.
Hoşgeldiniz!
Filmbol'u tercih ettiğiniz için teşekkürler, ancak ablock kullanarak devam edemezsiniz.
Merak etmeyin. Heryerden ardı ardına çıkan reklamlar görmeyeceksiniz :)

Sadece site içi 1 reklam göreceksin ve bu site gezintini etkilemeyecek.
Konuyu Oyla:
  • Derecelendirme: 0/5 - 0 oy
  • 1
  • 2
  • 3
  • 4
  • 5
Title: İntikam: Bir Aşk Hikayesi (Vengeance: A Love Story) Türkçe Dublaj Brrip-Xvid İndir
Gösterim Stili
#1
Filmin Yayınlanma Tarihi: 2018 

indirme türü


Bulut + Premium

vizyon tarihi


15 Eylül 2017

Boyutlar


1,19

diller


[TR]

altyazilar


Yok [Eklenebilir]

Video Format: Avi


Audio Video Interleave (.AVI)

Video Detay


MPEG-4, 1597 Kbps, 1,10 GB

imdb puanı


5,2 / 10,0 / 5,000

süre


99 dakika

Ses Kodek: MP3


MPEG-1 Audio Layer III (MP3)

Ses Detay


128 Kbps, 2 Kanal, 90 Mb

rarsifresi


Filmbol.org

Editör Puanı


4,5

Genislik Yukseklik


720x390

sürüm


h263 | Brrip-Xvid



Film Detayları

İntikam: Bir Aşk Hikayesi (2018) Türkçe Dublaj Bluray Brrip-Xvid İndir | Kısa özet:

İntikam: Bir Aşk Hikayesi (Vengeance: A Love Story) Filmi İmdb'den 5.000 kişi tarafından oylandı ve 5,2 puan aldı. Bu film için editör puanı 4,5 olarak belirlendi. İyi Seyirler!


Teknik Detaylar
Kod:
General
Complete name                            : Vengeance.A.Love.Story.2017.BRRip.XviD.TR.avi
Format                                   : AVI
Format/Info                              : Audio Video Interleave
File size                                : 1.20 GiB
Duration                                 : 1 h 38 min
Overall bit rate                         : 1 738 kb/s

Video
ID                                       : 0
Format                                   : MPEG-4 Visual
Format profile                           : Simple@L5
Format settings, BVOP                    : No
Format settings, QPel                    : No
Format settings, GMC                     : No warppoints
Format settings, Matrix                  : Default (H.263)
Codec ID                                 : XVID
Codec ID/Hint                            : XviD
Duration                                 : 1 h 38 min
Bit rate                                 : 1 597 kb/s
Width                                    : 720 pixels
Height                                   : 390 pixels
Display aspect ratio                     : 1.85:1
Frame rate                               : 23.976 (23976/1000) FPS
Color space                              : YUV
Chroma subsampling                       : 4:2:0
Bit depth                                : 8 bits
Scan type                                : Progressive
Compression mode                         : Lossy
Bits/(Pixel*Frame)                       : 0.237
Stream size                              : 1.10 GiB (92%)
Writing library                          : Lavc57.107.100

Audio
ID                                       : 1
Format                                   : MPEG Audio
Format version                           : Version 1
Format profile                           : Layer 3
Format settings                          : Joint stereo / MS Stereo
Codec ID                                 : 55
Codec ID/Hint                            : MP3
Duration                                 : 1 h 38 min
Bit rate mode                            : Constant
Bit rate                                 : 128 kb/s
Channel(s)                               : 2 channels
Sampling rate                            : 48.0 kHz
Frame rate                               : 41.667 FPS (1152 SPF)
Compression mode                         : Lossy
Stream size                              : 90.3 MiB (7%)
Alignment                                : Aligned on interleaves
Interleave, duration                     : 24  ms (0.58 video frame)




Film Detayları


Intikam Bır ask hikayesi

Intikam Bır ask hikayesi

Intikam Bır ask hikayesi

Intikam Bır ask hikayesi

Intikam Bır ask hikayesi





Film Fragmanı


Film Detayları

Brrip İndir


Turbobit İle İndir

Mega linki şuan da gizli. Kullanıma açmak için konuya yorum yapın ve ardından sayfayı yenileyin. Ayrıca bu linki açtığınızda reklamsız olarak erişebileceğinizi unutmayın.

Mega


Uptobox ile indir

Cloud Ru ile indir

 
Cevapla
  


Konu ile Alakalı Benzer Konular
Konular Yazar Yorumlar Okunma Son Yorum
Filmin Yayınlanma Tarihi: 2019 The Laundromat (2019) Türkçe Dublaj Brrip Xvid İndir BroserBros 1 38 07-11-2019, Saat: 16:21
Son Yorum: komador06
Filmin Yayınlanma Tarihi: 2018 Sessiz Kalma (The Hate U Give) Türkçe Dublaj Brrip Xvid İndir BroserBros 1 115 26-10-2019, Saat: 08:38
Son Yorum: komador06
Filmin Yayınlanma Tarihi: 2019 The Highwaymen (2019) Türkçe Dublaj Brrip Xvid İndir BroserBros 0 158 18-07-2019, Saat: 17:07
Son Yorum: BroserBros
Filmin Yayınlanma Tarihi: 2019 Shaft (Shaft) Türkçe Dublaj Brrip-Xvid İndir BroserBros 0 183 05-07-2019, Saat: 21:56
Son Yorum: BroserBros
Filmin Yayınlanma Tarihi: 2015 Sicario (Sicario) Türkçe Dublaj Brrip-Xvid İndir BroserBros 1 1,384 11-01-2019, Saat: 03:14
Son Yorum: mehmetemin

Hızlı Menü:


Browsing: 1 Ziyaretçi