Filmbol Forum Film İndir 720P v İnanılmaz Aile 2 (Incredibles 2) Türkçe Dublaj BLURAY 720P İndir
Mega linklerinin şikayet edilmemesi için global erişime kapatıp sadece yorum yapanlara açıyoruz. Bu linkleri gizleme işlemini mecburen yapıyoruz ve yorum yapmanızın siteye değil size faydası vardır. Teşekürler yazmayı çok görüp, Random/Spam mesajlar atarak Mega linklerini açmaya çalışan kullanıcılara önce süresiz ban, devam ederse IP ban atacağız.
Filmbol'da moderatör olmak ister misiniz? Bizimle iletişime geçmek için tıklayın!
İnanılmaz Aile 2 (Incredibles 2) Türkçe Dublaj BLURAY 720P İndir
BroserBros
İnanılmaz Aile 2 (Incredibles 2) Türkçe Dublaj BLURAY 720P İndir
5
667
  • Derecelendirme: 0/5 - 0 oy
  • 1
  • 2
  • 3
  • 4
  • 5
Konuyu Okuyanlar:1 Ziyaretçi
Şuan Online!
Filmin Yayınlanma Tarihi: 2019 
WWW
Şuan Online!
BroserBros Kurucu Admin
*******
Admin








İnanılmaz Aile 2




Teknik Detaylar


Kod :
General
Complete name                            : İnanılmaz.Aile.2.2018.720p.BLURAY.x264.TR.Filmbol.mkv
Format                                   : Matroska
Format version                           : Version 4 / Version 2
File size                                : 1.18 GiB
Duration                                 : 1h 57mn
Overall bit rate                         : 1 436 Kbps
Movie name                               : İnanılmaz Aile 2 (2018) - Filmbol.org
Encoded date                             : UTC 2019-12-21 12:53:55
Writing application                      : mkvmerge v35.0.0 ('All The Love In The World') 64-bit
Writing library                          : libebml v1.3.9 + libmatroska v1.5.2

Video
ID                                       : 1
Format                                   : AVC
Format/Info                              : Advanced Video Codec
Format profile                           : [email protected]
Format settings, CABAC                   : Yes
Format settings, ReFrames                : 4 frames
Codec ID                                 : V_MPEG4/ISO/AVC
Duration                                 : 1h 57mn
Bit rate                                 : 1 050 Kbps
Width                                    : 1 280 pixels
Height                                   : 534 pixels
Display aspect ratio                     : 2.40:1
Original display aspect ratio            : 2.40:1
Frame rate mode                          : Constant
Frame rate                               : 23.976 (24000/1001) fps
Color space                              : YUV
Chroma subsampling                       : 4:2:0
Bit depth                                : 8 bits
Scan type                                : Progressive
Bits/(Pixel*Frame)                       : 0.064
Stream size                              : 885 MiB (73%)
Title                                    : 720P - Filmbol.org
Writing library                          : x264 core 152
Default                                  : Yes
Forced                                   : No

Audio
ID                                       : 2
Format                                   : AC-3
Format/Info                              : Audio Coding 3
Mode extension                           : CM (complete main)
Format settings, Endianness              : Big
Codec ID                                 : A_AC3
Duration                                 : 1h 57mn
Bit rate mode                            : Constant
Bit rate                                 : 384 Kbps
Channel(s)                               : 6 channels
Channel positions                        : Front: L C R, Side: L R, LFE
Sampling rate                            : 48.0 KHz
Frame rate                               : 31.250 fps (1536 spf)
Compression mode                         : Lossy
Stream size                              : 324 MiB (27%)
Title                                    : Türkçe - Filmbol.org
Language                                 : Turkish
Default                                  : Yes
Forced                                   : No

Text
ID                                       : 3
Format                                   : UTF-8
Codec ID                                 : S_TEXT/UTF8
Codec ID/Info                            : UTF-8 Plain Text
Duration                                 : 2s 44ms
Bit rate                                 : 117 bps
Count of elements                        : 1
Stream size                              : 30.0 Bytes (0%)
Title                                    : KISIM
Language                                 : Turkish
Default                                  : Yes
Forced                                   : No

Film Detayları


İnanılmaz Aile 2

İnanılmaz Aile 2

İnanılmaz Aile 2


Film Fragmanı


Film Detayları

Mini 720P İndir



Uptobox ile indir

1Fichier ile indir

1Fichier'den İndiremiyor musun? Tıklayın!


Mega linki şuan da gizli. Kullanıma açmak için konuya yorum yapın ve ardından sayfayı yenileyin.

Mega


MediaFire ile indir

Şuan Offine!
Şuan Offine!
Snider866 Uzman Üye
**
Uzman Üye

  • Konular0
  • Mesajlar19
  • Rep puanı 0
Hhjhjhjjjk
Şuan Offine!
Şuan Offine!
Akkoyunlu Yeni Üye
*
Üye

  • Konular0
  • Mesajlar1
  • Rep puanı 0
uosjdoawsklds
Şuan Offine!
Şuan Offine!
kdssadkcncjd Yeni Üye
*
Üye

  • Konular0
  • Mesajlar5
  • Rep puanı 0
efasfsfsfsfs Wink
Şuan Offine!
Şuan Offine!
rasputhink Yeni Üye
*
Üye

  • Konular0
  • Mesajlar4
  • Rep puanı 0
İndirmek istiyorum : )
Şuan Offine!
Şuan Offine!
berkemir Uzman Üye
**
Uzman Üye

  • Konular0
  • Mesajlar12
  • Rep puanı 0
Teşekkürler


Konu ile Alakalı Benzer Konular
Konular Yazar Yorumlar Okunma Son Yorum
Filmin Yayınlanma Tarihi: 1999
Dövüş Kulübü (Fight Club) - 1999 - TR+ORG - 720P | tt0137523 BroserBros 1 377 49 dakika önce
Son Yorum: BroserBros
Filmin Yayınlanma Tarihi: 2018
Benim Adım Bolt (I Am Bolt) - 2016 - TR+ORG - 720P | tt4647900 BroserBros 2 331 59 dakika önce
Son Yorum: BroserBros
Filmin Yayınlanma Tarihi: 2018
urtiz (Curtiz) - 2018 - TR+ORG - 720P | tt6774588 BroserBros 1 250 1 saat önce
Son Yorum: BroserBros
Filmin Yayınlanma Tarihi: 2019
Bir Köpeğin Fantastik Hikayesi (L'extraordinaire voyage de Marona) - 2019 - TR+ORG - 720P | tt6785292 TheSteeL 0 3 1 saat önce
Son Yorum: TheSteeL
Filmin Yayınlanma Tarihi: 2019
The Jesus Rolls: Quintana Dönüyor (The Jesus Rolls) - 2019 - TR+ORG - 720P | tt5974030 TheSteeL 0 3 1 saat önce
Son Yorum: TheSteeL

Hızlı Menü: