Filmbol Forum Film İndir BRRip XviD v In the Tall Grass (2019) Türkçe Dublaj Brrip Xvid İndir
Filmbol'da moderatör olmak ister misiniz? Bizimle iletişime geçmek için tıklayın!
In the Tall Grass (2019) Türkçe Dublaj Brrip Xvid İndir
BroserBros
In the Tall Grass (2019) Türkçe Dublaj Brrip Xvid İndir
0
298
  • Derecelendirme: 0/5 - 0 oy
  • 1
  • 2
  • 3
  • 4
  • 5
Konuyu Okuyanlar:1 Ziyaretçi
Şuan Online!
Filmin Yayınlanma Tarihi: 2019 
Şuan Online!
BroserBros Kurucu Admin
*******
Admin

indirme türü


Bulut + Premium

Vizyon Tarihi


04 Ekim 2019

Boyutlar


1,10

diller


[TR]

altyazilar


KISIM [Eklenebilir]

Video Format: Avi


Audio Video Interleave (.AVI)

Video Detay


MPEG-4, 1408 Kbps, 1,00GB

imdb puanı


5,5 / 10,0 / 27,000

süre


101 dakika

Ses Kodek: MP3


MPEG-1 Audio Layer III (MP3)

Ses Detay


128 Kbps, 2 Kanal, 94Mb

Editör Puanı


5,4

Genislik Yukseklik


720-302

sürüm


h263 | Brrip Xvid




In the Tall Grass


Film Detayları

Cal ve Becky kardeşler, uzun otlarla çevrili bir alanda yaşayan teyzelerine gitmek için yola koyulurlar. Yolda ilerleyen kardeşler birden çalılıkların arasından bir ses duyar. Sese kulak verdiklerinde kendilerinden yardım istendiğini anlayan kardeşler ne yapacaklarını şaşırır. Yakalanmaktan korktukları için çok ses çıkarmadan kendilerini duyurmaya çalışan anne ve oğlunu bulmak için arabadan inen Cal ve Becky, otların arasında onlara ulaşmaya çalışır. Ancak çok geçmeden kendilerini yardım beklemek zorunda kalacakları bir durumun içerisinde bulurlar.

In the Tall Grass (2019) Filmi Imdb'den 27,000 kişi tarafından oylandı ve 5,5 puan aldı. Bu film için editör puanı 5,4 olarak belirlendi. İyi Seyirler!


Teknik Detaylar


Kod :
General
Complete name                            : In.the.Tall.Grass.2019.WEBRip.XviD.TR.Filmbol.avi
Format                                   : AVI
Format/Info                              : Audio Video Interleave
File size                                : 1.10 GiB
Duration                                 : 1h 41mn
Overall bit rate                         : 1 549 Kbps

Video
ID                                       : 0
Format                                   : MPEG-4 Visual
Format profile                           : Simple@L5
Format settings, BVOP                    : No
Format settings, QPel                    : No
Format settings, GMC                     : No warppoints
Format settings, Matrix                  : Default (H.263)
Codec ID                                 : XVID
Codec ID/Hint                            : XviD
Duration                                 : 1h 41mn
Bit rate                                 : 1 408 Kbps
Width                                    : 720 pixels
Height                                   : 302 pixels
Display aspect ratio                     : 2.40:1
Frame rate                               : 24.000 fps
Color space                              : YUV
Chroma subsampling                       : 4:2:0
Bit depth                                : 8 bits
Scan type                                : Progressive
Compression mode                         : Lossy
Bits/(Pixel*Frame)                       : 0.270
Stream size                              : 1.00 GiB (91%)
Writing library                          : Lavc58.1.100

Audio
ID                                       : 1
Format                                   : MPEG Audio
Format version                           : Version 1
Format profile                           : Layer 3
Mode                                     : Joint stereo
Mode extension                           : MS Stereo
Codec ID                                 : 55
Codec ID/Hint                            : MP3
Duration                                 : 1h 41mn
Bit rate mode                            : Constant
Bit rate                                 : 128 Kbps
Channel(s)                               : 2 channels
Sampling rate                            : 48.0 KHz
Compression mode                         : Lossy
Stream size                              : 93.3 MiB (8%)
Alignment                                : Aligned on interleaves
Interleave, duration                     : 24 ms (0.58 video frame)

Film Detayları


in the tall grass

in the tall grass

in the tall grass


Film Fragmanı


Film Detayları

Brrip İndir


Uptobox ile indir

LetsUpload ile indir

fe2h

Mega ile indir

MediaFire ile indir



Konu ile Alakalı Benzer Konular
Konular Yazar Yorumlar Okunma Son Yorum
Filmin Yayınlanma Tarihi: 2020
Deathstroke Şövalyeler ve Ejderhalar (Deathstroke Knights & Dragons: The Movie) - 2020 - TR - BRRip XviD BroserBros 0 45 23-11-2020, Saat: 18:30
Son Yorum: BroserBros
Filmin Yayınlanma Tarihi: 2019
15 Dakika Savaş (L'intervention) - 2019 - TR - BRRip XviD BroserBros 0 46 23-11-2020, Saat: 17:42
Son Yorum: BroserBros
Filmin Yayınlanma Tarihi: 2020
Sürprizli Gece (The Sleepover) - 2020 - TR - BRRip XviD BroserBros 0 47 23-11-2020, Saat: 16:18
Son Yorum: BroserBros
Filmin Yayınlanma Tarihi: 2020
Feride (Feride) - 2020 - TR - BRRip XviD BroserBros 0 39 22-11-2020, Saat: 17:58
Son Yorum: BroserBros
Filmin Yayınlanma Tarihi: 2019
Gel Babacığına (Come to Daddy) - 2019 - TR - BRRip XviD BroserBros 0 35 22-11-2020, Saat: 17:43
Son Yorum: BroserBros

Hızlı Menü: