Filmbol Forum Film İndir 720P v In the Tall Grass (2019) Türkçe Dublaj BLURAY m720P İndir
Filmbol'da moderatör olmak ister misiniz? Bizimle iletişime geçmek için tıklayın!
In the Tall Grass (2019) Türkçe Dublaj BLURAY m720P İndir
BroserBros
In the Tall Grass (2019) Türkçe Dublaj BLURAY m720P İndir
1
334
  • Derecelendirme: 0/5 - 0 oy
  • 1
  • 2
  • 3
  • 4
  • 5
Konuyu Okuyanlar:1 Ziyaretçi
Şuan Online!
Filmin Yayınlanma Tarihi: 2019 
Şuan Online!
BroserBros Kurucu Admin
*******
Admin

indirme türü


Bulut + Premium

Vizyon Tarihi


04 Ekim 2019

Boyutlar


1,16

diller


[TR]

altyazilar


KISIM [Eklenebilir]

Video Format: Mkv


Matroska (.MKV)

Video Detay


MPEG-4, 1247 Kbps, 0,90GB

imdb puanı


5,5 / 10,0 / 27,000

süre


101 dakika

Ses Kodek: AC3


Audio Coding 3 (AC3)

Ses Detay


384 Kbps, 6 Kanal, 280Mb

Editör Puanı


5,4

Genislik Yukseklik


1280-720

sürüm


x264 | 720P




In the Tall Grass


Film Detayları

Cal ve Becky kardeşler, uzun otlarla çevrili bir alanda yaşayan teyzelerine gitmek için yola koyulurlar. Yolda ilerleyen kardeşler birden çalılıkların arasından bir ses duyar. Sese kulak verdiklerinde kendilerinden yardım istendiğini anlayan kardeşler ne yapacaklarını şaşırır. Yakalanmaktan korktukları için çok ses çıkarmadan kendilerini duyurmaya çalışan anne ve oğlunu bulmak için arabadan inen Cal ve Becky, otların arasında onlara ulaşmaya çalışır. Ancak çok geçmeden kendilerini yardım beklemek zorunda kalacakları bir durumun içerisinde bulurlar.

In the Tall Grass (2019) Filmi Imdb'den 27,000 kişi tarafından oylandı ve 5,5 puan aldı. Bu film için editör puanı 5,4 olarak belirlendi. İyi Seyirler!


Teknik Detaylar


Kod :
General
Complete name                            : In.the.Tall.Grass.2019.m720p.NF.WEB-DL.x264.TR.Filmbol.mkv
Format                                   : Matroska
Format version                           : Version 4 / Version 2
File size                                : 1.16 GiB
Duration                                 : 1h 41mn
Overall bit rate                         : 1 633 Kbps
Movie name                               : In the Tall Grass (2019) - Filmbol.org
Encoded date                             : UTC 2019-11-07 01:02:32
Writing application                      : mkvmerge v35.0.0 ('All The Love In The World') 64-bit
Writing library                          : libebml v1.3.9 + libmatroska v1.5.2

Video
ID                                       : 1
Format                                   : AVC
Format/Info                              : Advanced Video Codec
Format profile                           : Main@L3.1
Format settings, CABAC                   : Yes
Format settings, ReFrames                : 2 frames
Codec ID                                 : V_MPEG4/ISO/AVC
Duration                                 : 1h 41mn
Bit rate                                 : 1 247 Kbps
Width                                    : 1 280 pixels
Height                                   : 720 pixels
Display aspect ratio                     : 16:9
Frame rate mode                          : Constant
Frame rate                               : 24.000 fps
Color space                              : YUV
Chroma subsampling                       : 4:2:0
Bit depth                                : 8 bits
Scan type                                : Progressive
Bits/(Pixel*Frame)                       : 0.056
Stream size                              : 909 MiB (76%)
Title                                    : 720P - Filmbol.org
Default                                  : Yes
Forced                                   : No

Audio
ID                                       : 2
Format                                   : AC-3
Format/Info                              : Audio Coding 3
Mode extension                           : CM (complete main)
Format settings, Endianness              : Big
Codec ID                                 : A_AC3
Duration                                 : 1h 41mn
Bit rate mode                            : Constant
Bit rate                                 : 384 Kbps
Channel(s)                               : 6 channels
Channel positions                        : Front: L C R, Side: L R, LFE
Sampling rate                            : 48.0 KHz
Frame rate                               : 31.250 fps (1536 spf)
Compression mode                         : Lossy
Stream size                              : 280 MiB (24%)
Title                                    : Türkçe - Filmbol.org
Language                                 : Turkish
Default                                  : Yes
Forced                                   : No

Film Detayları


in the tall grass

in the tall grass

in the tall grass


Film Fragmanı


Film Detayları

Mini 720P İndir


Uptobox ile indir

LetsUpload ile indir

fe2i

Mega ile indir

MediaFire ile indir

Şuan Offine!
Şuan Offine!
Serhat1 Uzman Üye
**
Uzman Üye

  • Konular0
  • Mesajlar8
  • Rep puanı 0
Nice good


Konu ile Alakalı Benzer Konular
Konular Yazar Yorumlar Okunma Son Yorum
Filmin Yayınlanma Tarihi: 2019
15 Dakika Savaş (L'intervention) - 2019 - TR+ORG - 720P BroserBros 0 36 23-11-2020, Saat: 17:42
Son Yorum: BroserBros
Filmin Yayınlanma Tarihi: 2019
Gel Babacığına (Come to Daddy) - 2019 - TR+ORG - 720P BroserBros 0 32 22-11-2020, Saat: 17:43
Son Yorum: BroserBros
Filmin Yayınlanma Tarihi: 2019
San Francisco'daki Son Siyah Adam (The Last Black Man in San Francisco) - 2019 - TR+ORG - 720P BroserBros 0 37 22-11-2020, Saat: 17:30
Son Yorum: BroserBros
Filmin Yayınlanma Tarihi: 2019
Beni Unutma (Remember Me) - 2019 - TR+ORG - 720P BroserBros 0 62 21-11-2020, Saat: 16:14
Son Yorum: BroserBros
Filmin Yayınlanma Tarihi: 2019
Mazlum Kuzey 2 (Kasada Para Var!) - 2019 - TR+ORG - 720P BroserBros 0 40 21-11-2020, Saat: 16:01
Son Yorum: BroserBros

Hızlı Menü: