Filmbol Forum Film İndir BRRip XviD v İmparator: Yeraltı Dünyasının Hükümdarı (L'Empereur de Paris) - 2018 - TR - BRRip
Moderatör Alımları Başladı! Başvuru yapmak için tıklayın.
Filmbol Premium'da %50'e varan indirim fırsatı!
İmparator: Yeraltı Dünyasının Hükümdarı (L'Empereur de Paris) - 2018 - TR - BRRip
BroserBros
İmparator: Yeraltı Dünyasının Hükümdarı (L'Empereur de Paris) - 2018 - TR - BRRip
0
132
  • Derecelendirme: 0/5 - 0 oy
  • 1
  • 2
  • 3
  • 4
  • 5
Konuyu Okuyanlar:1 Ziyaretçi
Şuan Offine!
Filmin Yayınlanma Tarihi: 2018 
Şuan Offine!
BroserBros Kurucu Admin
*******
Admin

Vizyon Tarihi


18 Haziran 2019

imdb puanı


6,3 / 4,000

süre


120 dakika

Editör Puanı


6,0 / 10

Video Format: Avi


Audio Video Interleave (.AVI)

Ses Kodek: MP3


MPEG-1 Audio Layer III (MP3)

sürüm


h263 | BRRip XviD

Boyutlar


1,25 GB



 İmparator: Yeraltı Dünyasının Hükümdarı



Napolyon'un ezici rejimi altında eğer bir kişi devlet tarafından öldürülmek isteniyorsa, bunun kaçış yolu yoktur. Ancak François Vidocq, kurtulmayı başarmıştır ve paris sokaklarında bir efsane haline gelmiştir....

İmparator: Yeraltı Dünyasının Hükümdarı (2018) (L'Empereur de Paris) Filmi Imdb'den 4,000 kişi tarafından oylandı ve 6,3 puan aldı. Bu film için editör puanı 6,0 olarak belirlendi. İyi Seyirler!

Teknik Detaylar

Kod :
General
Complete name                            : /root/Desktop/6/Imparator.Yeraltı.Dünyasının.Hükümdarı.2018.BRRip.XViD.TR.Filmbol.avi
Format                                  : AVI
Format/Info                              : Audio Video Interleave
File size                                : 1.25 GiB
Duration                                : 2h 0mn
Overall bit rate                        : 1 489 Kbps

Video
ID                                      : 0
Format                                  : MPEG-4 Visual
Format profile                          : Advanced Simple@L5
Format settings, BVOP                    : 1
Format settings, QPel                    : No
Format settings, GMC                    : No warppoints
Format settings, Matrix                  : Custom
Codec ID                                : XVID
Codec ID/Hint                            : XviD
Duration                                : 2h 0mn
Bit rate                                : 1 348 Kbps
Width                                    : 720 pixels
Height                                  : 304 pixels
Display aspect ratio                    : 2.35:1
Frame rate                              : 23.976 (24000/1001) fps
Color space                              : YUV
Chroma subsampling                      : 4:2:0
Bit depth                                : 8 bits
Scan type                                : Progressive
Compression mode                        : Lossy
Bits/(Pixel*Frame)                      : 0.257
Stream size                              : 1.13 GiB (91%)
Writing library                          : XviD 73

Audio
ID                                      : 1
Format                                  : MPEG Audio
Format version                          : Version 1
Format profile                          : Layer 3
Mode                                    : Joint stereo
Mode extension                          : MS Stereo
Codec ID                                : 55
Codec ID/Hint                            : MP3
Duration                                : 2h 0mn
Bit rate mode                            : Constant
Bit rate                                : 128 Kbps
Channel(s)                              : 2 channels
Sampling rate                            : 48.0 KHz
Compression mode                        : Lossy
Stream size                              : 110 MiB (9%)
Alignment                                : Aligned on interleaves
Interleave, duration                    : 24 ms (0.58 video frame)

Film Detayları


 İmparator: Yeraltı Dünyasının Hükümdarı

 İmparator: Yeraltı Dünyasının Hükümdarı

 İmparator: Yeraltı Dünyasının Hükümdarı


Film Fragmanı


Film Detayları


Uptobox ile indir

1Fichier ile indir

1Fichier'den İndiremiyor musun? Tıklayın!


Mega ile indir

Bunun için üzgünüz ancak, bu linke sadece premium üyeler erişebilir.

Filmbol Cloud



Konu ile Alakalı Benzer Konular
Konular Yazar Yorumlar Okunma Son Yorum
Filmin Yayınlanma Tarihi: 2018
Gözbebeğim (Pupille) - 2018 - TR - BRRip XviD BroserBros 0 259 18-09-2020, Saat: 13:02
Son Yorum: BroserBros
Filmin Yayınlanma Tarihi: 2018
Ölüm Düğümü (The Clovehitch Killer) - 2018 - TR - BRRip XviD BroserBros 0 148 07-08-2020, Saat: 19:18
Son Yorum: BroserBros
Filmin Yayınlanma Tarihi: 2018
Gölge Savaşçı (Shadow - Ying) - 2018 - TR - BRRip XviD BroserBros 0 136 26-07-2020, Saat: 12:56
Son Yorum: BroserBros
Filmin Yayınlanma Tarihi: 2018
Göç Mevsimi (Pájaros de verano) - 2018 - TR - BRRip XviD BroserBros 0 90 21-07-2020, Saat: 20:03
Son Yorum: BroserBros
Filmin Yayınlanma Tarihi: 2018
Haberci (Message Man) - 2018 - TR - BRRip XviD BroserBros 0 59 21-07-2020, Saat: 19:51
Son Yorum: BroserBros

Hızlı Menü: