Filmbol Forum Film İndir 1080P v İmparator: Yeraltı Dünyasının Hükümdarı (L'Empereur de Paris) - 2018 - TR - 1080P
Moderatör Alımları Başladı! Başvuru yapmak için tıklayın.
Filmbol Premium'da %50'e varan indirim fırsatı!
İmparator: Yeraltı Dünyasının Hükümdarı (L'Empereur de Paris) - 2018 - TR - 1080P
BroserBros
İmparator: Yeraltı Dünyasının Hükümdarı (L'Empereur de Paris) - 2018 - TR - 1080P
0
97
  • Derecelendirme: 0/5 - 0 oy
  • 1
  • 2
  • 3
  • 4
  • 5
Konuyu Okuyanlar:1 Ziyaretçi
Şuan Online!
Filmin Yayınlanma Tarihi: 2018 
Şuan Online!
BroserBros Kurucu Admin
*******
Admin

Vizyon Tarihi


18 Haziran 2019

imdb puanı


6,3 / 4,000

süre


120 dakika

Editör Puanı


6,0 / 10

Video Format: Mkv


Matroska (.MKV)

Ses Kodek: AC3


Audio Coding 3 (AC3)

sürüm


x264 | 1080P | BLURAY

Boyutlar


1,90 GB



 İmparator: Yeraltı Dünyasının Hükümdarı



Napolyon'un ezici rejimi altında eğer bir kişi devlet tarafından öldürülmek isteniyorsa, bunun kaçış yolu yoktur. Ancak François Vidocq, kurtulmayı başarmıştır ve paris sokaklarında bir efsane haline gelmiştir....

İmparator: Yeraltı Dünyasının Hükümdarı (2018) (L'Empereur de Paris) Filmi Imdb'den 4,000 kişi tarafından oylandı ve 6,3 puan aldı. Bu film için editör puanı 6,0 olarak belirlendi. İyi Seyirler!

Teknik Detaylar

Kod :
General
Unique ID                                : 152721508042072578282054364620656416019 (0x72E517B14AE7BCCFE3836150FFFB1513)
Complete name                            : /root/Desktop/6/Imparator.Yeraltı.Dünyasının.Hükümdarı.2018.1080p.BLURAY.x264.TR.Filmbol.mkv
Format                                  : Matroska
Format version                          : Version 4 / Version 2
File size                                : 1.90 GiB
Duration                                : 2h 0mn
Overall bit rate                        : 2 270 Kbps
Movie name                              : İmparator: Yeraltı Dünyasının Hükümdarı (2018) - Filmbol.org
Encoded date                            : UTC 2020-04-19 13:49:05
Writing application                      : mkvmerge v8.8.0 ('Wind at my back') 64bit
Writing library                          : libebml v1.3.3 + libmatroska v1.4.4

Video
ID                                      : 1
Format                                  : AVC
Format/Info                              : Advanced Video Codec
Format profile                          : Main@L4
Format settings, CABAC                  : Yes
Format settings, ReFrames                : 2 frames
Codec ID                                : V_MPEG4/ISO/AVC
Duration                                : 2h 0mn
Bit rate                                : 2 075 Kbps
Width                                    : 1 920 pixels
Height                                  : 800 pixels
Display aspect ratio                    : 2.40:1
Frame rate mode                          : Constant
Frame rate                              : 23.976 (24000/1001) fps
Color space                              : YUV
Chroma subsampling                      : 4:2:0
Bit depth                                : 8 bits
Scan type                                : Progressive
Bits/(Pixel*Frame)                      : 0.056
Stream size                              : 1.74 GiB (91%)
Title                                    : 1080P
Language                                : French
Default                                  : Yes
Forced                                  : No

Audio
ID                                      : 2
Format                                  : AC-3
Format/Info                              : Audio Coding 3
Mode extension                          : CM (complete main)
Format settings, Endianness              : Big
Codec ID                                : A_AC3
Duration                                : 2h 0mn
Bit rate mode                            : Constant
Bit rate                                : 192 Kbps
Channel(s)                              : 2 channels
Channel positions                        : Front: L R
Sampling rate                            : 48.0 KHz
Frame rate                              : 31.250 fps (1536 spf)
Compression mode                        : Lossy
Stream size                              : 165 MiB (8%)
Title                                    : Türkçe
Language                                : Turkish
Default                                  : Yes
Forced                                  : No

Film Detayları


 İmparator: Yeraltı Dünyasının Hükümdarı

 İmparator: Yeraltı Dünyasının Hükümdarı

 İmparator: Yeraltı Dünyasının Hükümdarı


Film Fragmanı


Film Detayları

Uptobox ile indir

1Fichier ile indir

1Fichier'den İndiremiyor musun? Tıklayın!


Mega ile indir

Bunun için üzgünüz ancak, bu linke sadece premium üyeler erişebilir.

Filmbol Cloud



Konu ile Alakalı Benzer Konular
Konular Yazar Yorumlar Okunma Son Yorum
Filmin Yayınlanma Tarihi: 2018
Seviye 16 (Level 16) - 2018 - TR+ORG - 1080P BroserBros 0 82 04-07-2020, Saat: 21:28
Son Yorum: BroserBros
Filmin Yayınlanma Tarihi: 2018
Küçük Orman (Little Woods) - 2018 - TR+ORG - 1080P BroserBros 0 82 04-07-2020, Saat: 19:59
Son Yorum: BroserBros
Filmin Yayınlanma Tarihi: 2018
Suda Ölüm (Dead in the Water) - 2018 - TR+ORG - 1080P BroserBros 0 85 04-07-2020, Saat: 19:40
Son Yorum: BroserBros
Filmin Yayınlanma Tarihi: 2019
X-Men: Dark Phoenix (2019) Türkçe Dublaj BLURAY 1080P İndir BroserBros 36 2,270 04-07-2020, Saat: 00:45
Son Yorum: oktayfidann
Filmin Yayınlanma Tarihi: 2019
Aşkı Beklerken (Deux moi - Someone, Somewhere) - 2019 - TR+ORG - 1080P BroserBros 0 104 03-07-2020, Saat: 14:18
Son Yorum: BroserBros

Hızlı Menü: