Hoşgeldin, Ziyaretçi: Giriş Yap Üye Ol


Konuyu Oyla:
  • Derecelendirme: 0/5 - 0 oy
  • 1
  • 2
  • 3
  • 4
  • 5
Title: İkizler Projesi (Gemini Man) Türkçe Dublaj BRRip XviD İndir
Gösterim Stili
#1
Filmin Yayınlanma Tarihi: 2019 

vizyon tarihi


11 Ekim 2019

imdb puanı


5,7 / 50,000

süre


117 dakika

Editör Puanı


6,5 / 10

Video Format: Avi


Audio Video Interleave (.AVI)

Ses Kodek: MP3


MPEG-1 Audio Layer III (MP3)

sürüm


h263 | BRRip XviD

Boyutlar


1,42



 İkizler Projesi



İkizler Projesi, eski bir kiralık katilin peşine düşen klonundan kurtulmak için verdiği mücadeleyi konu ediyor. Henry, işinde uzman olan bir kiralık katildir. Artık bu işlerden kurtulup hayatına yeni bir yön vermek isteyen Henry, bir anda kendisini büyük bir girdabın içinde bulur. Kiralık katilin peşine, kendisini öldürmek için gizli bir ajan düşmüştür. Üstelik peşindeki ajan, Henry’den 25 yıl önce alınan genlerle oluşturulan bir klondur. Henry, her hareketini önceden tahmin edebilen bu klonunda kurtulmak için zorlu bir savaş vermek zorunda kalır. Filmin yönetmenliğini, daha önce "Pi'nin Yaşamı" ve "Kaplan ve Ejderha"yı yöneten Ang Lee üstleniyor.

İkizler Projesi (2019) (Gemini Man) Filmi Imdb'den 50,000 kişi tarafından oylandı ve 5,7 puan aldı. Bu film için editör puanı 6,5 olarak belirlendi. İyi Seyirler!

Teknik Detaylar

Kod:
General Complete name                            : /root/Desktop/1/İkizler.Projesi.2019.BRRip.XviD.TR.Filmbol.avi Format                                   : AVI Format/Info                              : Audio Video Interleave File size                                : 1.42 GiB Duration                                 : 1h 57mn Overall bit rate                         : 1 739 Kbps  Video ID                                       : 0 Format                                   : MPEG-4 Visual Format profile                           : Simple@L5 Format settings, BVOP                    : No Format settings, QPel                    : No Format settings, GMC                     : No warppoints Format settings, Matrix                  : Default (H.263) Codec ID                                 : XVID Codec ID/Hint                            : XviD Duration                                 : 1h 57mn Bit rate                                 : 1 598 Kbps Width                                    : 720 pixels Height                                   : 388 pixels Display aspect ratio                     : 1.85:1 Frame rate                               : 23.976 fps Color space                              : YUV Chroma subsampling                       : 4:2:0 Bit depth                                : 8 bits Scan type                                : Progressive Compression mode                         : Lossy Bits/(Pixel*Frame)                       : 0.239 Stream size                              : 1.31 GiB (92%) Writing library                          : Lavc58.35.100  Audio ID                                       : 1 Format                                   : MPEG Audio Format version                           : Version 1 Format profile                           : Layer 3 Mode                                     : Joint stereo Codec ID                                 : 55 Codec ID/Hint                            : MP3 Duration                                 : 1h 57mn Bit rate mode                            : Constant Bit rate                                 : 128 Kbps Channel(s)                               : 2 channels Sampling rate                            : 48.0 KHz Compression mode                         : Lossy Stream size                              : 107 MiB (7%) Alignment                                : Aligned on interleaves Interleave, duration                     : 24 ms (0.58 video frame)

Film Detayları


 İkizler Projesi

 İkizler Projesi

 İkizler Projesi


Film Fragmanı


Film Detayları

Brrip İndir

Uptobox ile indir

1Fichier ile indir

Mega linki şuan da gizli. Kullanıma açmak için konuya yorum yapın ve ardından sayfayı yenileyin. Ayrıca bu linki açtığınızda reklamsız olarak erişebileceğinizi unutmayın.

Mega


Mediafire linki şuan da gizli. Kullanıma açmak için konuya yorum yapın ve ardından sayfayı yenileyin. Ayrıca bu linki açtığınızda reklamsız olarak erişebileceğinizi unutmayın.

Mediafire

 
Cevapla
#2
tşk...
 
Cevapla
#3
tsekurler
 
Cevapla
  


Konu ile Alakalı Benzer Konular
Konular Yazar Yorumlar Okunma Son Yorum
Filmin Yayınlanma Tarihi: 2005 Serenity: Gizemli Yolculuk (Serenity) Türkçe Dublaj BRRip XviD indir BroserBros 2 110 17-02-2020, Saat: 23:16
Son Yorum: agresif
Filmin Yayınlanma Tarihi: 1985 Geleceğe Dönüş (Back to the Future) Türkçe Dublaj Brrip Xvid İndir BroserBros 2 250 15-02-2020, Saat: 19:23
Son Yorum: hokkabaz256
Filmin Yayınlanma Tarihi: 2019 The Wave (2019) Türkçe Dublaj BRRip XviD indir BroserBros 0 63 15-02-2020, Saat: 13:14
Son Yorum: BroserBros
Filmin Yayınlanma Tarihi: 2019 Yıldızlara Doğru (Ad Astra) Türkçe Dublaj BRRip XviD İndir BroserBros 2 153 08-02-2020, Saat: 15:02
Son Yorum: MrGunebakan
Filmin Yayınlanma Tarihi: 2013 Demir Adam 3 (Iron Man 3) Türkçe Dublaj Brrip-Xvid İndir BroserBros 2 1,845 08-02-2020, Saat: 13:49
Son Yorum: Ap0calypse

Hızlı Menü:


Browsing: 1 Ziyaretçi