Filmbol Forum Film İndir 1080P v İkizler Projesi (Gemini Man) Türkçe Dublaj BLURAY 1080P İndir
Mega linklerinin şikayet edilmemesi için global erişime kapatıp sadece yorum yapanlara açıyoruz. Bu linkleri gizleme işlemini mecburen yapıyoruz ve yorum yapmanızın siteye değil size faydası vardır. Teşekürler yazmayı çok görüp, Random/Spam mesajlar atarak Mega linklerini açmaya çalışan kullanıcılara önce süresiz ban, devam ederse IP ban atacağız.
Filmbol'da moderatör olmak ister misiniz? Bizimle iletişime geçmek için tıklayın!
İkizler Projesi (Gemini Man) Türkçe Dublaj BLURAY 1080P İndir
BroserBros
İkizler Projesi (Gemini Man) Türkçe Dublaj BLURAY 1080P İndir
5
478
  • Derecelendirme: 0/5 - 0 oy
  • 1
  • 2
  • 3
  • 4
  • 5
Konuyu Okuyanlar:1 Ziyaretçi
Şuan Online!
Filmin Yayınlanma Tarihi: 2019 
WWW
Şuan Online!
BroserBros Kurucu Admin
*******
Admin








 İkizler Projesi



İkizler Projesi, eski bir kiralık katilin peşine düşen klonundan kurtulmak için verdiği mücadeleyi konu ediyor. Henry, işinde uzman olan bir kiralık katildir. Artık bu işlerden kurtulup hayatına yeni bir yön vermek isteyen Henry, bir anda kendisini büyük bir girdabın içinde bulur. Kiralık katilin peşine, kendisini öldürmek için gizli bir ajan düşmüştür. Üstelik peşindeki ajan, Henry’den 25 yıl önce alınan genlerle oluşturulan bir klondur. Henry, her hareketini önceden tahmin edebilen bu klonunda kurtulmak için zorlu bir savaş vermek zorunda kalır. Filmin yönetmenliğini, daha önce "Pi'nin Yaşamı" ve "Kaplan ve Ejderha"yı yöneten Ang Lee üstleniyor.

İkizler Projesi (2019) (Gemini Man) Filmi Imdb'den 50,000 kişi tarafından oylandı ve 5,7 puan aldı. Bu film için editör puanı 6,5 olarak belirlendi. İyi Seyirler!

Teknik Detaylar

Kod :
General Unique ID                                : 161746220059221700924507049593098270451 (0x79AF305926E3D19DBAA741187F90F6F3) Complete name                            : /root/Desktop/1/İkizler.Projesi.2019.1080p.BluRay.x264.TR.Filmbol.mkv Format                                   : Matroska Format version                           : Version 4 / Version 2 File size                                : 2.03 GiB Duration                                 : 1h 57mn Overall bit rate                         : 2 486 Kbps Movie name                               : İkizler Projesi (2019) - Filmbol.org Encoded date                             : UTC 2020-01-15 12:50:01 Writing application                      : mkvmerge v35.0.0 ('All The Love In The World') 64-bit Writing library                          : libebml v1.3.9 + libmatroska v1.5.2  Video ID                                       : 1 Format                                   : AVC Format/Info                              : Advanced Video Codec Format profile                           : [email protected] Format settings, CABAC                   : Yes Format settings, ReFrames                : 4 frames Codec ID                                 : V_MPEG4/ISO/AVC Duration                                 : 1h 57mn Bit rate                                 : 2 100 Kbps Width                                    : 1 920 pixels Height                                   : 1 040 pixels Display aspect ratio                     : 1.85:1 Frame rate mode                          : Constant Frame rate                               : 23.976 (24000/1001) fps Color space                              : YUV Chroma subsampling                       : 4:2:0 Bit depth                                : 8 bits Scan type                                : Progressive Bits/(Pixel*Frame)                       : 0.044 Stream size                              : 1.72 GiB (84%) Title                                    : 1080P - Filmbol.org Writing library                          : x264 core 158 Encoding settings                        : cabac=1 / ref=4 / deblock=1:-1:-1 / analyse=0x3:0x133 / me=umh / subme=9 / psy=1 / psy_rd=1.00:0.15 / mixed_ref=1 / me_range=24 / chroma_me=1 / trellis=2 / 8x8dct=1 / cqm=0 / deadzone=21,11 / fast_pskip=0 / chroma_qp_offset=-3 / threads=18 / lookahead_threads=1 / sliced_threads=0 / nr=0 / decimate=1 / interlaced=0 / bluray_compat=0 / constrained_intra=0 / bframes=3 / b_pyramid=2 / b_adapt=2 / b_bias=0 / direct=3 / weightb=1 / open_gop=0 / weightp=2 / keyint=250 / keyint_min=23 / scenecut=40 / intra_refresh=0 / rc_lookahead=60 / rc=2pass / mbtree=1 / bitrate=2100 / ratetol=1.0 / qcomp=0.60 / qpmin=0 / qpmax=69 / qpstep=4 / cplxblur=20.0 / qblur=0.5 / vbv_maxrate=31250 / vbv_bufsize=31250 / nal_hrd=none / filler=0 / ip_ratio=1.40 / aq=1:1.00 Default                                  : Yes Forced                                   : No  Audio ID                                       : 2 Format                                   : AC-3 Format/Info                              : Audio Coding 3 Mode extension                           : CM (complete main) Format settings, Endianness              : Big Codec ID                                 : A_AC3 Duration                                 : 1h 57mn Bit rate mode                            : Constant Bit rate                                 : 384 Kbps Channel(s)                               : 6 channels Channel positions                        : Front: L C R, Side: L R, LFE Sampling rate                            : 48.0 KHz Frame rate                               : 31.250 fps (1536 spf) Compression mode                         : Lossy Stream size                              : 321 MiB (15%) Title                                    : Türkçe - Filmbol.org Language                                 : Turkish Default                                  : Yes Forced                                   : No  Text ID                                       : 3 Format                                   : UTF-8 Codec ID                                 : S_TEXT/UTF8 Codec ID/Info                            : UTF-8 Plain Text Duration                                 : 1h 55mn Bit rate                                 : 0 bps Count of elements                        : 14 Stream size                              : 359 Bytes (0%) Title                                    : KISIM Language                                 : Turkish Default                                  : Yes Forced                                   : Yes

Film Detayları


 İkizler Projesi

 İkizler Projesi


Film Fragmanı


Film Detayları

Mini 1080P İndir

Uptobox ile indir

1Fichier ile indir

1Fichier'den İndiremiyor musun? Tıklayın!


Mega linki şuan da gizli. Kullanıma açmak için konuya yorum yapın ve ardından sayfayı yenileyin.

Mega


MediaFire ile indir

Şuan Offine!
Şuan Offine!
Murat94 Süper Üye
***
Super Üye

  • Konular0
  • Mesajlar36
  • Rep puanı 0
Güzel
Şuan Offine!
Şuan Offine!
back-ir Süper Üye
***
Super Üye

  • Konular0
  • Mesajlar29
  • Rep puanı 1
Beklediğim bir film, bilim ve kurgu
Şuan Offine!
Şuan Offine!
Polatemirhan Süper Üye
***
Super Üye

  • Konular0
  • Mesajlar26
  • Rep puanı 0
teşekkürler
Şuan Offine!
Şuan Offine!
LORD 4 Uzman Üye
**
Uzman Üye

  • Konular0
  • Mesajlar6
  • Rep puanı 0
Süper ...
Şuan Offine!
Şuan Offine!
kimsinsen Uzman Üye
**
Uzman Üye

  • Konular0
  • Mesajlar13
  • Rep puanı 0
Idea teşekkürler


Konu ile Alakalı Benzer Konular
Konular Yazar Yorumlar Okunma Son Yorum
Filmin Yayınlanma Tarihi: 1974
Baba 2 (The Godfather: Part II) - 1974 - TR+ORG - 1080P | tt0071562 BroserBros 1 266 19 dakika önce
Son Yorum: BroserBros
Filmin Yayınlanma Tarihi: 2008
VOL-i (WALL-E) - 2008 - TR+ORG - 1080P | tt0910970 BroserBros 4 421 20 dakika önce
Son Yorum: BroserBros
Filmin Yayınlanma Tarihi: 1972
Baba (The Godfather) - 1972 - TR+ORG - 1080P | tt0068646 BroserBros 1 233 46 dakika önce
Son Yorum: BroserBros
Filmin Yayınlanma Tarihi: 1990
Baba 3 (The Godfather: Part III) - 1990 - TR+ORG - 1080P | tt0099674 BroserBros 1 266 1 saat önce
Son Yorum: BroserBros
Filmin Yayınlanma Tarihi: 1998
Armageddon (Armageddon) - 1998 - TR+ORG - 1080P | tt0120591 BroserBros 1 260 3 saat önce
Son Yorum: BroserBros

Hızlı Menü: