Hoşgeldin, Ziyaretçi: Giriş Yap Üye Ol


Konuyu Oyla:
  • Derecelendirme: 0/5 - 0 oy
  • 1
  • 2
  • 3
  • 4
  • 5
Title: İkikez Yaşa Birkez Sev (Live Twice Love Once) Türkçe Dublaj BRRip XviD İndir
Gösterim Stili
#1
Filmin Yayınlanma Tarihi: 2019 

vizyon tarihi


06 Kasım 2019

imdb puanı


7,3 / 1,000

süre


101 dakika

Editör Puanı


6,0 / 10

Video Format: Avi


Audio Video Interleave (.AVI)

Ses Kodek: MP3


MPEG-1 Audio Layer III (MP3)

sürüm


h263 | BRRip Xvid

Boyutlar


1,05



Live Twice Love Once



Alzheimer teşhisi konulan Emillio, ailesinin yardımıyla çocukluk aşkıyla yeniden bir araya gelebilmek üzere bir maceraya atılır.

İkikez Yaşa Birkez Sev (2019) (Vivir dos veces - Live Twice Love Once) Filmi Imdb'den 1,000 kişi tarafından oylandı ve 7,3 puan aldı. Bu film için editör puanı 6,0 olarak belirlendi. İyi Seyirler!

Teknik Detaylar

Kod:
General Complete name                            : /root/Desktop/10/Live.Twice.Love.Once.2020.BRRip.XViD.TR.Filmbol.avi Format                                   : AVI Format/Info                              : Audio Video Interleave File size                                : 1.05 GiB Duration                                 : 1h 41mn Overall bit rate                         : 1 482 Kbps  Video ID                                       : 0 Format                                   : MPEG-4 Visual Format profile                           : Advanced Simple@L5 Format settings, BVOP                    : 2 Format settings, QPel                    : No Format settings, GMC                     : No warppoints Format settings, Matrix                  : Default (MPEG) Codec ID                                 : XVID Codec ID/Hint                            : XviD Duration                                 : 1h 41mn Bit rate                                 : 1 341 Kbps Width                                    : 720 pixels Height                                   : 404 pixels Display aspect ratio                     : 16:9 Frame rate                               : 24.000 fps Color space                              : YUV Chroma subsampling                       : 4:2:0 Bit depth                                : 8 bits Scan type                                : Progressive Compression mode                         : Lossy Bits/(Pixel*Frame)                       : 0.192 Stream size                              : 974 MiB (90%) Writing library                          : XviD 64  Audio ID                                       : 1 Format                                   : MPEG Audio Format version                           : Version 1 Format profile                           : Layer 3 Mode                                     : Joint stereo Mode extension                           : MS Stereo Codec ID                                 : 55 Codec ID/Hint                            : MP3 Duration                                 : 1h 41mn Bit rate mode                            : Constant Bit rate                                 : 128 Kbps Channel(s)                               : 2 channels Sampling rate                            : 48.0 KHz Compression mode                         : Lossy Stream size                              : 92.9 MiB (9%) Alignment                                : Aligned on interleaves Interleave, duration                     : 24 ms (0.58 video frame)

Film Detayları


Live Twice Love Once

Live Twice Love Once

Live Twice Love Once


Film Fragmanı


Film Detayları

Brrip İndir

Uptobox ile indir

1Fichier ile indir

Mega linki şuan da gizli. Kullanıma açmak için konuya yorum yapın ve ardından sayfayı yenileyin. Ayrıca bu linki açtığınızda reklamsız olarak erişebileceğinizi unutmayın.

Mega


Mediafire linki şuan da gizli. Kullanıma açmak için konuya yorum yapın ve ardından sayfayı yenileyin. Ayrıca bu linki açtığınızda reklamsız olarak erişebileceğinizi unutmayın.

Mediafire

 
Cevapla
  


Konu ile Alakalı Benzer Konular
Konular Yazar Yorumlar Okunma Son Yorum
Filmin Yayınlanma Tarihi: 2015 Chappie (Chappie) Türkçe Dublaj Bluray Brrip-Xvid İndir BroserBros 3 2,025 09-02-2020, Saat: 04:36
Son Yorum: filmbolcu
Filmin Yayınlanma Tarihi: 2018 Merak Etme, Fazla Uzaklaşamaz (2018) Türkçe Dublaj Brrip Xvid İndir BroserBros 2 249 05-02-2020, Saat: 00:12
Son Yorum: Megalodon
Filmin Yayınlanma Tarihi: 2015 Diriliş (The Revenant) Türkçe Dublaj Brrip-Xvid İndir BroserBros 2 3,127 03-02-2020, Saat: 19:32
Son Yorum: badboys755
Filmin Yayınlanma Tarihi: 2018 Nina Hakkında Herşey (All About Nina) Türkçe Dublaj BRRip XviD İndir BroserBros 0 48 02-02-2020, Saat: 21:14
Son Yorum: BroserBros
Filmin Yayınlanma Tarihi: 2016 Frekans (Cell) Türkçe Dublaj Brrip-Xvid İndir BroserBros 1 872 31-01-2020, Saat: 19:39
Son Yorum: ismail30

Hızlı Menü:


Browsing: 2 Ziyaretçi