Filmbol Forum Film İndir BRRip XviD v İkikez Yaşa Birkez Sev (Live Twice Love Once) Türkçe Dublaj BRRip XviD İndir
Mega linklerinin şikayet edilmemesi için global erişime kapatıp sadece yorum yapanlara açıyoruz. Bu linkleri gizleme işlemini mecburen yapıyoruz ve yorum yapmanızın siteye değil size faydası vardır. Teşekürler yazmayı çok görüp, Random/Spam mesajlar atarak Mega linklerini açmaya çalışan kullanıcılara önce süresiz ban, devam ederse IP ban atacağız.
Filmbol'da moderatör olmak ister misiniz? Bizimle iletişime geçmek için tıklayın!
İkikez Yaşa Birkez Sev (Live Twice Love Once) Türkçe Dublaj BRRip XviD İndir
BroserBros
İkikez Yaşa Birkez Sev (Live Twice Love Once) Türkçe Dublaj BRRip XviD İndir
0
493
  • Derecelendirme: 0/5 - 0 oy
  • 1
  • 2
  • 3
  • 4
  • 5
Konuyu Okuyanlar:1 Ziyaretçi
Şuan Online!
Filmin Yayınlanma Tarihi: 2019 
WWW
Şuan Online!
BroserBros Kurucu Admin
*******
Admin








Live Twice Love Once



Alzheimer teşhisi konulan Emillio, ailesinin yardımıyla çocukluk aşkıyla yeniden bir araya gelebilmek üzere bir maceraya atılır.

İkikez Yaşa Birkez Sev (2019) (Vivir dos veces - Live Twice Love Once) Filmi Imdb'den 1,000 kişi tarafından oylandı ve 7,3 puan aldı. Bu film için editör puanı 6,0 olarak belirlendi. İyi Seyirler!

Teknik Detaylar

Kod :
General Complete name                            : /root/Desktop/10/Live.Twice.Love.Once.2020.BRRip.XViD.TR.Filmbol.avi Format                                   : AVI Format/Info                              : Audio Video Interleave File size                                : 1.05 GiB Duration                                 : 1h 41mn Overall bit rate                         : 1 482 Kbps  Video ID                                       : 0 Format                                   : MPEG-4 Visual Format profile                           : Advanced [email protected] Format settings, BVOP                    : 2 Format settings, QPel                    : No Format settings, GMC                     : No warppoints Format settings, Matrix                  : Default (MPEG) Codec ID                                 : XVID Codec ID/Hint                            : XviD Duration                                 : 1h 41mn Bit rate                                 : 1 341 Kbps Width                                    : 720 pixels Height                                   : 404 pixels Display aspect ratio                     : 16:9 Frame rate                               : 24.000 fps Color space                              : YUV Chroma subsampling                       : 4:2:0 Bit depth                                : 8 bits Scan type                                : Progressive Compression mode                         : Lossy Bits/(Pixel*Frame)                       : 0.192 Stream size                              : 974 MiB (90%) Writing library                          : XviD 64  Audio ID                                       : 1 Format                                   : MPEG Audio Format version                           : Version 1 Format profile                           : Layer 3 Mode                                     : Joint stereo Mode extension                           : MS Stereo Codec ID                                 : 55 Codec ID/Hint                            : MP3 Duration                                 : 1h 41mn Bit rate mode                            : Constant Bit rate                                 : 128 Kbps Channel(s)                               : 2 channels Sampling rate                            : 48.0 KHz Compression mode                         : Lossy Stream size                              : 92.9 MiB (9%) Alignment                                : Aligned on interleaves Interleave, duration                     : 24 ms (0.58 video frame)

Film Detayları


Live Twice Love Once

Live Twice Love Once

Live Twice Love Once


Film Fragmanı


Film Detayları

Brrip İndir

Uptobox ile indir

1Fichier ile indir

1Fichier'den İndiremiyor musun? Tıklayın!


Mega linki şuan da gizli. Kullanıma açmak için konuya yorum yapın ve ardından sayfayı yenileyin.

Mega


MediaFire ile indir



Konu ile Alakalı Benzer Konular
Konular Yazar Yorumlar Okunma Son Yorum
Filmin Yayınlanma Tarihi: 2016
Suicide Squad: Gerçek Kötüler Türkçe Dublaj Brrip-Xvid İndir BroserBros 5 3,532 1 saat önce
Son Yorum: algül
Filmin Yayınlanma Tarihi: 2018
Venom: Zehirli Öfke (Venom) - 2018 - TR - BRRip XviD | tt1270797 BroserBros 9 1,273 1 saat önce
Son Yorum: Furkan61
Filmin Yayınlanma Tarihi: 2016
Batman v Superman: Adaletin Şafağı (Batman v Superman: Dawn of Justice) - 2016 - TR - BRRip XviD | tt2975590 BroserBros 1 1,608 2 saat önce
Son Yorum: BroserBros
Filmin Yayınlanma Tarihi: 2020
Yarını Yokmuş Gibi (Palm Springs) - 2020 - TR - BRRip XviD | tt9484998 TheSteeL 0 27 , Saat: 01:17
Son Yorum: TheSteeL
Filmin Yayınlanma Tarihi: 2020
Polis (Police) - 2020 - TR - BRRip XviD | tt9850344 TheSteeL 0 23 , Saat: 01:04
Son Yorum: TheSteeL

Hızlı Menü: