Filmbol Forum Film İndir BRRip XviD v İkikez Yaşa Birkez Sev (Live Twice Love Once) Türkçe Dublaj BRRip XviD İndir
Moderatör Alımları Başladı! Başvuru yapmak için tıklayın.
Filmbol Premium'da %50'e varan indirim fırsatı!
İkikez Yaşa Birkez Sev (Live Twice Love Once) Türkçe Dublaj BRRip XviD İndir
BroserBros
İkikez Yaşa Birkez Sev (Live Twice Love Once) Türkçe Dublaj BRRip XviD İndir
0
386
  • Derecelendirme: 0/5 - 0 oy
  • 1
  • 2
  • 3
  • 4
  • 5
Konuyu Okuyanlar:1 Ziyaretçi
Şuan Online!
Filmin Yayınlanma Tarihi: 2019 
Şuan Online!
BroserBros Kurucu Admin
*******
Admin

Vizyon Tarihi


06 Kasım 2019

imdb puanı


7,3 / 1,000

süre


101 dakika

Editör Puanı


6,0 / 10

Video Format: Avi


Audio Video Interleave (.AVI)

Ses Kodek: MP3


MPEG-1 Audio Layer III (MP3)

sürüm


h263 | BRRip Xvid

Boyutlar


1,05



Live Twice Love Once



Alzheimer teşhisi konulan Emillio, ailesinin yardımıyla çocukluk aşkıyla yeniden bir araya gelebilmek üzere bir maceraya atılır.

İkikez Yaşa Birkez Sev (2019) (Vivir dos veces - Live Twice Love Once) Filmi Imdb'den 1,000 kişi tarafından oylandı ve 7,3 puan aldı. Bu film için editör puanı 6,0 olarak belirlendi. İyi Seyirler!

Teknik Detaylar

Kod :
General Complete name                            : /root/Desktop/10/Live.Twice.Love.Once.2020.BRRip.XViD.TR.Filmbol.avi Format                                   : AVI Format/Info                              : Audio Video Interleave File size                                : 1.05 GiB Duration                                 : 1h 41mn Overall bit rate                         : 1 482 Kbps  Video ID                                       : 0 Format                                   : MPEG-4 Visual Format profile                           : Advanced Simple@L5 Format settings, BVOP                    : 2 Format settings, QPel                    : No Format settings, GMC                     : No warppoints Format settings, Matrix                  : Default (MPEG) Codec ID                                 : XVID Codec ID/Hint                            : XviD Duration                                 : 1h 41mn Bit rate                                 : 1 341 Kbps Width                                    : 720 pixels Height                                   : 404 pixels Display aspect ratio                     : 16:9 Frame rate                               : 24.000 fps Color space                              : YUV Chroma subsampling                       : 4:2:0 Bit depth                                : 8 bits Scan type                                : Progressive Compression mode                         : Lossy Bits/(Pixel*Frame)                       : 0.192 Stream size                              : 974 MiB (90%) Writing library                          : XviD 64  Audio ID                                       : 1 Format                                   : MPEG Audio Format version                           : Version 1 Format profile                           : Layer 3 Mode                                     : Joint stereo Mode extension                           : MS Stereo Codec ID                                 : 55 Codec ID/Hint                            : MP3 Duration                                 : 1h 41mn Bit rate mode                            : Constant Bit rate                                 : 128 Kbps Channel(s)                               : 2 channels Sampling rate                            : 48.0 KHz Compression mode                         : Lossy Stream size                              : 92.9 MiB (9%) Alignment                                : Aligned on interleaves Interleave, duration                     : 24 ms (0.58 video frame)

Film Detayları


Live Twice Love Once

Live Twice Love Once

Live Twice Love Once


Film Fragmanı


Film Detayları

Brrip İndir

Uptobox ile indir

1Fichier ile indir

1Fichier'den İndiremiyor musun? Tıklayın!


Mega ile indir

MediaFire ile indir



Konu ile Alakalı Benzer Konular
Konular Yazar Yorumlar Okunma Son Yorum
Filmin Yayınlanma Tarihi: 2019
Kelly Çetesi'nin Gerçek Hikayesi (True History of the Kelly Gang) - 2019 - TR - BRRip XviD BroserBros 0 74 11-07-2020, Saat: 20:23
Son Yorum: BroserBros
Filmin Yayınlanma Tarihi: 2019
İçerideki Adam: Muhbir (Inside Man: Most Wanted) - 2019 - TR - BRRip XviD BroserBros 0 76 11-07-2020, Saat: 20:10
Son Yorum: BroserBros
Filmin Yayınlanma Tarihi: 2018
Düzenbazlar Kulübü (Billionaire Boys Club) - 2018 - TR - BRRip XviD BroserBros 0 73 11-07-2020, Saat: 19:58
Son Yorum: BroserBros
Filmin Yayınlanma Tarihi: 2020
Özgürlük Listesi (The F**k-It List) - 2020 - TR - BRRip XviD BroserBros 0 41 10-07-2020, Saat: 23:09
Son Yorum: BroserBros
Filmin Yayınlanma Tarihi: 2019
Travma Merkezi (Trauma Center) - 2019 - TR - BRRip XviD BroserBros 0 38 10-07-2020, Saat: 22:53
Son Yorum: BroserBros

Hızlı Menü: