Filmbol Forum Film İndir 720P v İkikez Yaşa Birkez Sev (Live Twice Love Once) Türkçe Dublaj BLURAY 720P İndir
Filmbol'da moderatör olmak ister misiniz? Bizimle iletişime geçmek için tıklayın!
İkikez Yaşa Birkez Sev (Live Twice Love Once) Türkçe Dublaj BLURAY 720P İndir
BroserBros
İkikez Yaşa Birkez Sev (Live Twice Love Once) Türkçe Dublaj BLURAY 720P İndir
0
420
  • Derecelendirme: 0/5 - 0 oy
  • 1
  • 2
  • 3
  • 4
  • 5
Konuyu Okuyanlar:1 Ziyaretçi
Şuan Online!
Filmin Yayınlanma Tarihi: 2019 
Şuan Online!
BroserBros Kurucu Admin
*******
Admin

Vizyon Tarihi


06 Kasım 2019

imdb puanı


7,3 / 1,000

süre


101 dakika

Editör Puanı


6,0 / 10

Video Format: Mkv


Matroska (.MKV)

Ses Kodek: AC3


Audio Coding 3 (AC3)

sürüm


x264 | 720P | WEB-DL

Boyutlar


1,08



Live Twice Love Once



Alzheimer teşhisi konulan Emillio, ailesinin yardımıyla çocukluk aşkıyla yeniden bir araya gelebilmek üzere bir maceraya atılır.

İkikez Yaşa Birkez Sev (2019) (Vivir dos veces - Live Twice Love Once) Filmi Imdb'den 1,000 kişi tarafından oylandı ve 7,3 puan aldı. Bu film için editör puanı 6,0 olarak belirlendi. İyi Seyirler!

Teknik Detaylar

Kod :
General Unique ID                                : 97509436449431026792836697215569022744 (0x495BA264E1A4E1765667D761AF2CCF18) Complete name                            : /root/Desktop/10/Live.Twice.Love.Once.2020.720p.WEB-DL.x264.TR.Filmbol.mkv Format                                   : Matroska Format version                           : Version 4 / Version 2 File size                                : 1.08 GiB Duration                                 : 1h 41mn Overall bit rate mode                    : Variable Overall bit rate                         : 1 516 Kbps Movie name                               : Live Twice Love Once (2020) - Filmbol.org Encoded date                             : UTC 2020-01-09 00:25:20 Writing application                      : mkvmerge v35.0.0 ('All The Love In The World') 64-bit Writing library                          : libebml v1.3.9 + libmatroska v1.5.2  Video ID                                       : 1 Format                                   : AVC Format/Info                              : Advanced Video Codec Format profile                           : High@L3.1 Format settings, CABAC                   : Yes Format settings, ReFrames                : 4 frames Codec ID                                 : V_MPEG4/ISO/AVC Duration                                 : 1h 41mn Bit rate mode                            : Variable Bit rate                                 : 1 131 Kbps Maximum bit rate                         : 14.0 Mbps Width                                    : 1 280 pixels Height                                   : 720 pixels Display aspect ratio                     : 16:9 Frame rate mode                          : Constant Frame rate                               : 24.000 fps Color space                              : YUV Chroma subsampling                       : 4:2:0 Bit depth                                : 8 bits Scan type                                : Progressive Bits/(Pixel*Frame)                       : 0.051 Stream size                              : 821 MiB (75%) Title                                    : 720P - Filmbol.org Writing library                          : x264 core 148 r2715 7e75228 Encoding settings                        : cabac=1 / ref=4 / deblock=1:0:0 / analyse=0x3:0x111 / me=umh / subme=10 / psy=1 / psy_rd=1.00:0.00 / mixed_ref=1 / me_range=120 / chroma_me=1 / trellis=2 / 8x8dct=1 / cqm=0 / deadzone=21,11 / fast_pskip=1 / chroma_qp_offset=-2 / threads=8 / lookahead_threads=2 / sliced_threads=0 / nr=0 / decimate=1 / interlaced=0 / bluray_compat=0 / stitchable=1 / constrained_intra=0 / bframes=16 / b_pyramid=2 / b_adapt=2 / b_bias=0 / direct=3 / weightb=1 / open_gop=0 / weightp=2 / keyint=240 / keyint_min=121 / scenecut=0 / intra_refresh=0 / rc_lookahead=240 / rc=crf / mbtree=1 / crf=24.0 / qcomp=0.50 / qpmin=6 / qpmax=51 / qpstep=4 / vbv_maxrate=14000 / vbv_bufsize=14000 / crf_max=0.0 / nal_hrd=vbr / filler=0 / ip_ratio=1.40 / aq=1:0.80 Default                                  : Yes Forced                                   : No  Audio ID                                       : 2 Format                                   : AC-3 Format/Info                              : Audio Coding 3 Mode extension                           : CM (complete main) Format settings, Endianness              : Big Codec ID                                 : A_AC3 Duration                                 : 1h 41mn Bit rate mode                            : Constant Bit rate                                 : 384 Kbps Channel(s)                               : 6 channels Channel positions                        : Front: L C R, Side: L R, LFE Sampling rate                            : 48.0 KHz Frame rate                               : 31.250 fps (1536 spf) Compression mode                         : Lossy Stream size                              : 279 MiB (25%) Title                                    : Türkçe - Filmbol.org Language                                 : Turkish Default                                  : Yes Forced                                   : No  Text ID                                       : 3 Format                                   : UTF-8 Codec ID                                 : S_TEXT/UTF8 Codec ID/Info                            : UTF-8 Plain Text Duration                                 : 1h 34mn Bit rate                                 : 1 bps Count of elements                        : 26 Stream size                              : 1.08 KiB (0%) Title                                    : KISIM Language                                 : Turkish Default                                  : Yes Forced                                   : Yes

Film Detayları


Live Twice Love Once

Live Twice Love Once

Live Twice Love Once


Film Fragmanı


Film Detayları

Mini 720P İndir

Uptobox ile indir

1Fichier ile indir

1Fichier'den İndiremiyor musun? Tıklayın!


Mega ile indir

MediaFire ile indir



Konu ile Alakalı Benzer Konular
Konular Yazar Yorumlar Okunma Son Yorum
Filmin Yayınlanma Tarihi: 2018
Döndüm Ben (Yerli) - 2018 - TR+ORG - 720P BroserBros 0 6 3 saat önce
Son Yorum: BroserBros
Filmin Yayınlanma Tarihi: 2018
Bana Bir Soygun Yaz 2 (Yerli) - 2018 - TR+ORG - 720P BroserBros 0 8 3 saat önce
Son Yorum: BroserBros
Filmin Yayınlanma Tarihi: 2019
Hain (The Traitor / Il traditore) - 2019 - TR+ORG - 720P BroserBros 0 37 , Saat: 16:04
Son Yorum: BroserBros
Filmin Yayınlanma Tarihi: 2020
All Together Now (All Together Now) - 2020 - TR+ORG - 720P BroserBros 0 32 , Saat: 15:48
Son Yorum: BroserBros
Filmin Yayınlanma Tarihi: 2019
Ibiza (Ibiza) - 2019 - TR+ORG - 720P BroserBros 0 31 , Saat: 14:56
Son Yorum: BroserBros

Hızlı Menü: