Hoşgeldin, Ziyaretçi: Giriş Yap Üye Ol


Konuyu Oyla:
  • Derecelendirme: 0/5 - 0 oy
  • 1
  • 2
  • 3
  • 4
  • 5
Title: İkikez Yaşa Birkez Sev (Live Twice Love Once) Türkçe Dublaj BLURAY 1080P İndir
Gösterim Stili
#1
Filmin Yayınlanma Tarihi: 2019 

vizyon tarihi


06 Kasım 2019

imdb puanı


7,3 / 1,000

süre


101 dakika

Editör Puanı


6,0 / 10

Video Format: Mkv


Matroska (.MKV)

Ses Kodek: AC3


Audio Coding 3 (AC3)

sürüm


x264 | 1080P | WEB-DL

Boyutlar


1,70



Live Twice Love Once



Alzheimer teşhisi konulan Emillio, ailesinin yardımıyla çocukluk aşkıyla yeniden bir araya gelebilmek üzere bir maceraya atılır.

İkikez Yaşa Birkez Sev (2019) (Vivir dos veces - Live Twice Love Once) Filmi Imdb'den 1,000 kişi tarafından oylandı ve 7,3 puan aldı. Bu film için editör puanı 6,0 olarak belirlendi. İyi Seyirler!

Teknik Detaylar

Kod:
General Unique ID                                : 68250714613020460081634198026033319465 (0x33589C082F8C242F7CBEF9E5351C4E29) Complete name                            : /root/Desktop/10/Live.Twice.Love.Once.2020.1080p.WEB-DL.x264.TR.Filmbol.mkv Format                                   : Matroska Format version                           : Version 4 / Version 2 File size                                : 1.70 GiB Duration                                 : 1h 41mn Overall bit rate                         : 2 401 Kbps Movie name                               : Live Twice Love Once (2020) - Filmbol.org Encoded date                             : UTC 2020-01-09 00:26:07 Writing application                      : mkvmerge v35.0.0 ('All The Love In The World') 64-bit Writing library                          : libebml v1.3.9 + libmatroska v1.5.2  Video ID                                       : 1 Format                                   : AVC Format/Info                              : Advanced Video Codec Format profile                           : Main@L4 Format settings, CABAC                   : Yes Format settings, ReFrames                : 2 frames Codec ID                                 : V_MPEG4/ISO/AVC Duration                                 : 1h 41mn Bit rate                                 : 2 015 Kbps Width                                    : 1 920 pixels Height                                   : 1 080 pixels Display aspect ratio                     : 16:9 Frame rate mode                          : Constant Frame rate                               : 24.000 fps Color space                              : YUV Chroma subsampling                       : 4:2:0 Bit depth                                : 8 bits Scan type                                : Progressive Bits/(Pixel*Frame)                       : 0.040 Stream size                              : 1.43 GiB (84%) Title                                    : 1080P - Filmbol.org Default                                  : Yes Forced                                   : No  Audio ID                                       : 2 Format                                   : AC-3 Format/Info                              : Audio Coding 3 Mode extension                           : CM (complete main) Format settings, Endianness              : Big Codec ID                                 : A_AC3 Duration                                 : 1h 41mn Bit rate mode                            : Constant Bit rate                                 : 384 Kbps Channel(s)                               : 6 channels Channel positions                        : Front: L C R, Side: L R, LFE Sampling rate                            : 48.0 KHz Frame rate                               : 31.250 fps (1536 spf) Compression mode                         : Lossy Stream size                              : 279 MiB (16%) Title                                    : Türkçe - Filmbol.org Language                                 : Turkish Default                                  : Yes Forced                                   : No  Text ID                                       : 3 Format                                   : UTF-8 Codec ID                                 : S_TEXT/UTF8 Codec ID/Info                            : UTF-8 Plain Text Duration                                 : 1h 34mn Bit rate                                 : 1 bps Count of elements                        : 26 Stream size                              : 1.08 KiB (0%) Title                                    : KISIM Language                                 : Turkish Default                                  : Yes Forced                                   : Yes

Film Detayları


Live Twice Love Once

Live Twice Love Once

Live Twice Love Once


Film Fragmanı


Film Detayları


Mini 1080P İndir

Uptobox ile indir

1Fichier ile indir

Mega linki şuan da gizli. Kullanıma açmak için konuya yorum yapın ve ardından sayfayı yenileyin. Ayrıca bu linki açtığınızda reklamsız olarak erişebileceğinizi unutmayın.

Mega


Mediafire linki şuan da gizli. Kullanıma açmak için konuya yorum yapın ve ardından sayfayı yenileyin. Ayrıca bu linki açtığınızda reklamsız olarak erişebileceğinizi unutmayın.

Mediafire

 
Cevapla
  


Konu ile Alakalı Benzer Konular
Konular Yazar Yorumlar Okunma Son Yorum
Filmin Yayınlanma Tarihi: 2019 Joker (2019) Türkçe Dublaj BLURAY 1080P İndir BroserBros 6 51 8 saat önce
Son Yorum: ghostkronos24
Filmin Yayınlanma Tarihi: 2019 Saka Kuşu (The Goldfinch) Türkçe Dublaj BLURAY 1080P İndir BroserBros 0 58 23-01-2020, Saat: 18:48
Son Yorum: BroserBros
Filmin Yayınlanma Tarihi: 2018 Arctic (2018) Türkçe Dublaj BLURAY 1080P İndir BroserBros 1 56 16-01-2020, Saat: 23:40
Son Yorum: ahmetyee1
Filmin Yayınlanma Tarihi: 2015 Chappie (Chappie) Türkçe Dublaj Bluray 1080P İndir BroserBros 3 2,669 13-01-2020, Saat: 00:54
Son Yorum: Talhaer
Filmin Yayınlanma Tarihi: 2015 Diriliş (The Revenant) Türkçe Dublaj 1080P İndir BroserBros 3 2,604 12-01-2020, Saat: 19:24
Son Yorum: gqhan42

Hızlı Menü:


Browsing: 2 Ziyaretçi