Filmbol Forum Film İndir BRRip XviD v iBoy Türkçe Dublaj Brrip-Xvid İndir
Moderatör Alımları Başladı! Başvuru yapmak için tıklayın.
Filmbol Premium'da %50'e varan indirim fırsatı!
iBoy Türkçe Dublaj Brrip-Xvid İndir
BroserBros
iBoy Türkçe Dublaj Brrip-Xvid İndir
0
1135
  • Derecelendirme: 0/5 - 0 oy
  • 1
  • 2
  • 3
  • 4
  • 5
Konuyu Okuyanlar:1 Ziyaretçi
Şuan Online!
Filmin Yayınlanma Tarihi: 2017 
Şuan Online!
BroserBros Kurucu Admin
*******
Admin

indirme türü


Bulut + Premium

Vizyon Tarihi


27 Ocak 2017

Boyutlar


1,18GB

diller


[TR]

altyazilar


Yok [Eklenebilir]

Video Format: Avi


Audio Video Interleave (.AVI)

Video Detay


MPEG-4, 1740 Kbps, 1,09 GB

imdb puanı


6,1 / 10,0 / 3,000

süre


90 dakika

Ses Kodek: MP3


MPEG-1 Audio Layer III (MP3)

Ses Detay


128 Kbps, 2 Kanal, 83 Mb

rarsifresi


filmbol.org

Editör Puanı


6,0

Genislik Yukseklik


720x304

sürüm


h263 | NFRip - Xvid


Film Detayları

En yeni ve en gelişmiş dijital teknolojilere sahip olmaktan gurur duyuyor. Ancak her şey tam anlamıyla kafasının içinde. Bir kaza sonrası beyninde cep telefonu parçalarıyla yaşamak zorunda kalan Tom, elektronik cihazları kontrol edebildiğini keşfeder ve bu gücünü intikam için kullanır.


Teknik Detaylar
Kod :
General
Format                                   : AVI
Format/Info                              : Audio Video Interleave
File size                                : 1.18 GiB
Duration                                 : 1h 30mn
Overall bit rate                         : 1 877 Kbps

Video
ID                                       : 0
Format                                   : MPEG-4 Visual
Format profile                           : Advanced Simple@L5
Format settings, BVOP                    : 2
Format settings, QPel                    : No
Format settings, GMC                     : No warppoints
Format settings, Matrix                  : Default (H.263)
Muxing mode                              : Packed bitstream
Codec ID                                 : XVID
Codec ID/Hint                            : XviD
Duration                                 : 1h 30mn
Bit rate                                 : 1 740 Kbps
Width                                    : 720 pixels
Height                                   : 304 pixels
Display aspect ratio                     : 2.35:1
Frame rate                               : 23.976 fps
Color space                              : YUV
Chroma subsampling                       : 4:2:0
Bit depth                                : 8 bits
Scan type                                : Progressive
Compression mode                         : Lossy
Bits/(Pixel*Frame)                       : 0.332
Stream size                              : 1.09 GiB (93%)
Writing library                          : XviD 66

Audio
ID                                       : 1
Format                                   : MPEG Audio
Format version                           : Version 1
Format profile                           : Layer 3
Mode                                     : Joint stereo
Mode extension                           : MS Stereo
Codec ID                                 : 55
Codec ID/Hint                            : MP3
Duration                                 : 1h 30mn
Source duration                          : 1h 30mn
Bit rate mode                            : Constant
Bit rate                                 : 128 Kbps
Channel(s)                               : 2 channels
Sampling rate                            : 48.0 KHz
Compression mode                         : Lossy
Stream size                              : 82.5 MiB (7%)
Alignment                                : Aligned on interleaves
Interleave, duration                     : 42 ms (1.00 video frame)



Film Detayları


iBoy

iBoy

iBoy

iBoy

iBoy


Film Fragmanı


Film Detayları

Brrip İndir


Mega ile indir

Uptobox ile indir



Konu ile Alakalı Benzer Konular
Konular Yazar Yorumlar Okunma Son Yorum
Filmin Yayınlanma Tarihi: 2019
Kelly Çetesi'nin Gerçek Hikayesi (True History of the Kelly Gang) - 2019 - TR - BRRip XviD BroserBros 0 75 11-07-2020, Saat: 20:23
Son Yorum: BroserBros
Filmin Yayınlanma Tarihi: 2019
İçerideki Adam: Muhbir (Inside Man: Most Wanted) - 2019 - TR - BRRip XviD BroserBros 0 77 11-07-2020, Saat: 20:10
Son Yorum: BroserBros
Filmin Yayınlanma Tarihi: 2018
Düzenbazlar Kulübü (Billionaire Boys Club) - 2018 - TR - BRRip XviD BroserBros 0 73 11-07-2020, Saat: 19:58
Son Yorum: BroserBros
Filmin Yayınlanma Tarihi: 2020
Özgürlük Listesi (The F**k-It List) - 2020 - TR - BRRip XviD BroserBros 0 41 10-07-2020, Saat: 23:09
Son Yorum: BroserBros
Filmin Yayınlanma Tarihi: 2019
Travma Merkezi (Trauma Center) - 2019 - TR - BRRip XviD BroserBros 0 38 10-07-2020, Saat: 22:53
Son Yorum: BroserBros

Hızlı Menü: