Hoşgeldin, Ziyaretçi: Giriş Yap Üye Ol


stats
Adblock'u kapattıysanız tıklayın.
Hoşgeldiniz!
Filmbol'u tercih ettiğiniz için teşekkürler, ancak ablock kullanarak devam edemezsiniz.
Merak etmeyin. Heryerden ardı ardına çıkan reklamlar görmeyeceksiniz :)

Sadece site içi 1 reklam göreceksin ve bu site gezintini etkilemeyecek.
Konuyu Oyla:
  • Derecelendirme: 0/5 - 0 oy
  • 1
  • 2
  • 3
  • 4
  • 5
I Am Mother (2019) Türkçe Dublaj Brrip Xvid İndir
#1
Filmin Yayınlanma Tarihi: 2019 

indirme türü


Bulut + Premium

vizyon tarihi


18 Haziran 2019

Boyutlar


1,35

diller


[TR]

altyazilar


KISIM [Eklenebilir]

Video Format: Avi


Audio Video Interleave (.AVI)

Video Detay


MPEG-4, 1579 Kbps, 1,25GB

imdb puanı


6,8 / 10,0 / 35,000

süre


97 dakika

Ses Kodek: MP3


MPEG-1 Audio Layer III (MP3)

Ses Detay


128 Kbps, 2 Kanal, 104Mb

Editör Puanı


6,2

Genislik Yukseklik


720-300

sürüm


h263 | Brrip-Xvid-NF-WEBDL



Film Detayları

İnsanlığın soyu tükenmek üzeredir ve yer altında yeniden dünyayı şekillendirmeye çalışan  insanoğlu, "Anne" adında nazik bir robot yaratır ve bu robotu yeniden şekillendirme görevi verir. Anne yeryüzünde bulduğun son kız çocuğunu alır ve ona bakmaya başlar.

I Am Mother (I Am Mother) Filmi İmdb'den 50,000 kişi tarafından oylandı ve 6,0 puan aldı. Bu film için editör puanı 6,2 olarak belirlendi. İyi Seyirler!


Teknik Detaylar

Kod:
General
Complete name                            : I.Am.Mother.2019.WEBRip.XviD.TR.Filmbol.avi
Format                                   : AVI
Format/Info                              : Audio Video Interleave
File size                                : 1.36 GiB
Duration                                 : 1h 53mn
Overall bit rate                         : 1 720 Kbps

Video
ID                                       : 0
Format                                   : MPEG-4 Visual
Format profile                           : Simple@L5
Format settings, BVOP                    : No
Format settings, QPel                    : No
Format settings, GMC                     : No warppoints
Format settings, Matrix                  : Default (H.263)
Codec ID                                 : XVID
Codec ID/Hint                            : XviD
Duration                                 : 1h 53mn
Bit rate                                 : 1 579 Kbps
Width                                    : 720 pixels
Height                                   : 300 pixels
Display aspect ratio                     : 2.40:1
Frame rate                               : 24.000 fps
Color space                              : YUV
Chroma subsampling                       : 4:2:0
Bit depth                                : 8 bits
Scan type                                : Progressive
Compression mode                         : Lossy
Bits/(Pixel*Frame)                       : 0.305
Stream size                              : 1.25 GiB (92%)
Writing library                          : Lavc58.1.100

Audio
ID                                       : 1
Format                                   : MPEG Audio
Format version                           : Version 1
Format profile                           : Layer 3
Mode                                     : Joint stereo
Mode extension                           : MS Stereo
Codec ID                                 : 55
Codec ID/Hint                            : MP3
Duration                                 : 1h 53mn
Bit rate mode                            : Constant
Bit rate                                 : 128 Kbps
Channel(s)                               : 2 channels
Sampling rate                            : 48.0 KHz
Compression mode                         : Lossy
Stream size                              : 104 MiB (7%)
Alignment                                : Aligned on interleaves
Interleave, duration                     : 24 ms (0.58 video frame)




Film Detayları


I am Mother Turkce Dublaj Indir

I am Mother Turkce Dublaj Indir

I am Mother Turkce Dublaj Indir

I am Mother Turkce Dublaj Indir

I am Mother Turkce Dublaj Indir


Film Fragmanı


Film Detayları

Brrip İndir


Turbobit İle İndir

Uptobox ile indir

Cloud Ru ile indir

Dosya Co ile indir

Dosya Upload ile indir

Mega ile indir

Filmbol'da aşağıdaki linkler sadece üyelere sunulur. Ayrıca bu linklerde link kısaltma servisleri kullanılmaz, linke tek tık ile reklamsız erişirsiniz. Konu'ya yorum yapın ve sayfayı yenileyin. Reklamsız linkler (en az 3 en fazla 5 link) açılmış olacaktır. Not: Filmbol'a üye olmak tamamen ücretsizdir, en az 3 link kuralı 01.07.2019 tarihinden sonraki paylaşımlar için geçerlidir. Ancak çoğu film için en az bir premium link her zaman bulunur.

Mega

Dosyaco

Dosyaupload

Mediafire

Google Drive
 
Cevapla
  


Konu ile Alakalı Benzer Konular
Konular Yazar Yorumlar Okunma Son Yorum
Filmin Yayınlanma Tarihi: 2016 Sonsuzluk Teorisi (The Man Who Knew Infinity) Türkçe Dublaj Brrip-Xvid İndir BroserBros 1 1,531 14-09-2019, Saat: 21:27
Son Yorum: BroserBros
Filmin Yayınlanma Tarihi: 2018 Soldado (Sicario: Day of the Saldoda) Türkçe Dublaj Brrip Xvid İndir BroserBros 1 61 07-09-2019, Saat: 16:40
Son Yorum: gece_yagmuru
Filmin Yayınlanma Tarihi: 2018 Merak Etme, Fazla Uzaklaşamaz (2018) Türkçe Dublaj Brrip Xvid İndir BroserBros 0 30 30-08-2019, Saat: 22:49
Son Yorum: BroserBros
Filmin Yayınlanma Tarihi: 2018 Bohemian Rhapsody (2018) Türkçe Dublaj Brrip Xvid İndir BroserBros 1 45 24-08-2019, Saat: 19:44
Son Yorum: sifiriki02
Filmin Yayınlanma Tarihi: 2019 Gizli Takıntı (Secret Obsession) Türkçe Dublaj Brrip Xvid İndir BroserBros 1 145 22-08-2019, Saat: 16:13
Son Yorum: algül

Hızlı Menü:


Şu anda bu konuyu okuyanlar: 1 Ziyaretçi