Hoşgeldin, Ziyaretçi: Giriş Yap Üye Ol


stats
Adblock'u kapattıysanız tıklayın.
Hoşgeldiniz!
Filmbol'u tercih ettiğiniz için teşekkürler, ancak ablock kullanarak devam edemezsiniz.
Merak etmeyin. Heryerden ardı ardına çıkan reklamlar görmeyeceksiniz :)

Sadece site içi 1 reklam göreceksin ve bu site gezintini etkilemeyecek.
Konuyu Oyla:
  • Derecelendirme: 0/5 - 0 oy
  • 1
  • 2
  • 3
  • 4
  • 5
Title: Hürkuş: Göklerdeki Kahraman (2018) Yerli Film Brrip Xvid İndir
Gösterim Stili
#1
Filmin Yayınlanma Tarihi: 2018 

indirme türü


Bulut + Premium

vizyon tarihi


25 Mayıs 2018

Boyutlar


1,20

diller


[TR]

altyazilar


Yerli Film [Eklenebilir]

Video Format: Avi


Audio Video Interleave (.AVI)

Video Detay


MPEG-4, 1375 Kbps, 1,09GB

imdb puanı


6,0 / 10,0 / 1,000

süre


113 dakika

Ses Kodek: MP3


MPEG-1 Audio Layer III (MP3)

Ses Detay


128 Kbps, 2 Kanal, 104Mb

Editör Puanı


5,2

Genislik Yukseklik


720-388

sürüm


h263 | HDRip Xvid





Hurkus Goklerdeki Kahraman


Film Detayları

I. Dünya Savaşı ve Kurtuluş Savaşı’nda görev yapan, düşman uçağı düşüren ilk Türk pilot olan Vecihi Hürkuş’un hayatı beyaz perdeye aktarılıyor. Henüz 16 yaşındayken uçma sevdasının peşinden giden Vecihi Hürkuş, hayatını uçak üretmeye ve yeni pilotlar eğitmeye adadı.  Türk havacılık tarihinin en önemli isimlerinden pilot ve mühendis Vecihi Hürkuş'un hayatının anlatılacağı filmin yönetmenliğini Kudret Sabancı’nın üstleniyor. Senaryosunu Savaş Korkmaz’ın kaleme aldığı filmin oyuncu kadrosunda Hilmicem İntepe, Gizem Karaca, Miray Daner, Bora Akkaş, Zeyno Eracar, Murat Arkın, Bahadır Yenişehirlioğlu gibi isimler yer alıyor.

Hürkuş: Göklerdeki Kahraman (Yerli Film) Filmi Imdb'den 1,000 kişi tarafından oylandı ve 6,0 puan aldı. Bu film için editör puanı 5,2 olarak belirlendi. İyi Seyirler!


Teknik Detaylar


Kod:
General
Complete name                            : Hürkuş.Göklerdeki.Kahraman.2019.HDRip.XViD.Filmbol.avi
Format                                   : AVI
Format/Info                              : Audio Video Interleave
File size                                : 1.20 GiB
Duration                                 : 1h 53mn
Overall bit rate                         : 1 517 Kbps

Video
ID                                       : 0
Format                                   : MPEG-4 Visual
Format profile                           : Advanced Simple@L5
Format settings, BVOP                    : 1
Format settings, QPel                    : No
Format settings, GMC                     : No warppoints
Format settings, Matrix                  : Default (MPEG)
Codec ID                                 : XVID
Codec ID/Hint                            : XviD
Duration                                 : 1h 53mn
Bit rate                                 : 1 375 Kbps
Width                                    : 720 pixels
Height                                   : 388 pixels
Display aspect ratio                     : 1.85:1
Frame rate                               : 25.000 fps
Color space                              : YUV
Chroma subsampling                       : 4:2:0
Bit depth                                : 8 bits
Scan type                                : Progressive
Compression mode                         : Lossy
Bits/(Pixel*Frame)                       : 0.197
Stream size                              : 1.09 GiB (91%)
Writing library                          : XviD 64

Audio
ID                                       : 1
Format                                   : MPEG Audio
Format version                           : Version 1
Format profile                           : Layer 3
Mode                                     : Joint stereo
Mode extension                           : MS Stereo
Codec ID                                 : 55
Codec ID/Hint                            : MP3
Duration                                 : 1h 53mn
Bit rate mode                            : Constant
Bit rate                                 : 128 Kbps
Channel(s)                               : 2 channels
Sampling rate                            : 48.0 KHz
Compression mode                         : Lossy
Stream size                              : 104 MiB (8%)
Alignment                                : Aligned on interleaves
Interleave, duration                     : 24 ms (0.60 video frame)
Writing library                          : LAME3.99.5

Film Detayları


Hurkus Goklerdeki Kahraman

Hurkus Goklerdeki Kahraman

Hurkus Goklerdeki Kahraman


Film Fragmanı


Film Detayları

Brrip İndir


Uptobox ile indir

LetsUpload ile indir

Dosya Upload ile indir

Mega linki şuan da gizli. Kullanıma açmak için konuya yorum yapın ve ardından sayfayı yenileyin. Ayrıca bu linki açtığınızda reklamsız olarak erişebileceğinizi unutmayın.

Mega


Mediafire linki şuan da gizli. Kullanıma açmak için konuya yorum yapın ve ardından sayfayı yenileyin. Ayrıca bu linki açtığınızda reklamsız olarak erişebileceğinizi unutmayın.

Mediafire

 
Cevapla
  


Konu ile Alakalı Benzer Konular
Konular Yazar Yorumlar Okunma Son Yorum
Filmin Yayınlanma Tarihi: 2015 Suikastçi (The Assasin) Türkçe Dublaj Brrip-Xvid İndir BroserBros 1 789 09-11-2019, Saat: 14:45
Son Yorum: algül
Filmin Yayınlanma Tarihi: 2019 The King (2019) Türkçe Dublaj Brrip Xvid İndir BroserBros 0 49 02-11-2019, Saat: 04:04
Son Yorum: BroserBros
Filmin Yayınlanma Tarihi: 2012 Hatfields & McCoys: Bölüm 1 Türkçe Dublaj Brrip-Xvid İndir BroserBros 1 751 05-10-2019, Saat: 01:56
Son Yorum: Murat94
Filmin Yayınlanma Tarihi: 2016 Bir Ulusun Doğuşu (The Birth of a Nation) Türkçe Dublaj Brrip-Xvid İndir BroserBros 1 975 13-09-2019, Saat: 12:47
Son Yorum: BroserBros
Filmin Yayınlanma Tarihi: 2018 Soğuk Savaş (Zimna wojna) Türkçe Dublaj Brrip Xvid İndir BroserBros 0 105 08-08-2019, Saat: 19:12
Son Yorum: BroserBros

Hızlı Menü:


Browsing: 1 Ziyaretçi