Hoşgeldin, Ziyaretçi: Giriş Yap Üye Ol


stats
Adblock'u kapattıysanız tıklayın.
Hoşgeldiniz!
Filmbol'u tercih ettiğiniz için teşekkürler, ancak ablock kullanarak devam edemezsiniz.
Merak etmeyin. Heryerden ardı ardına çıkan reklamlar görmeyeceksiniz :)

Sadece site içi 1 reklam göreceksin ve bu site gezintini etkilemeyecek.
Konuyu Oyla:
  • Derecelendirme: 0/5 - 0 oy
  • 1
  • 2
  • 3
  • 4
  • 5
Hotel Artemis (2018) Türkçe Dublaj BLURAY m1080P İndir
#1
Filmin Yayınlanma Tarihi: 2018 

indirme türü


Bulut + Premium

vizyon tarihi


08 Haziran 2018

Boyutlar


1,50

diller


[TR]

altyazilar


Yok [Eklenebilir]

Video Format: Mkv


Matroska (.MKV)

Video Detay


MPEG-4, 2150 Kbps, 1,41GB

imdb puanı


6,1 / 10,0 / 32,000

süre


94 dakika

Ses Kodek: AC3


Audio Coding 3 (AC3)

Ses Detay


192 Kbps, 2 Kanal, 129 Mb

Editör Puanı


6,0

Genislik Yukseklik


1920-800

sürüm


x264 | m1080P





Hotel Artemis


Film Detayları



Teknik Detaylar


Kod:
General
Complete name                            : Hotel.Artemis.2018.m1080p.BLURAY.x264.TR.Filmbol.mkv
Format                                   : Matroska
Format version                           : Version 4 / Version 2
File size                                : 1.53 GiB
Duration                                 : 1h 33mn
Overall bit rate                         : 2 343 Kbps
Movie name                               : Hotel Artemis (2018) - Filmbol.org
Encoded date                             : UTC 2019-08-07 10:44:54
Writing application                      : mkvmerge v35.0.0 ('All The Love In The World') 64-bit
Writing library                          : libebml v1.3.9 + libmatroska v1.5.2

Video
ID                                       : 1
Format                                   : AVC
Format/Info                              : Advanced Video Codec
Format profile                           : High@L4.1
Format settings, CABAC                   : Yes
Format settings, ReFrames                : 4 frames
Codec ID                                 : V_MPEG4/ISO/AVC
Duration                                 : 1h 33mn
Bit rate                                 : 2 150 Kbps
Width                                    : 1 920 pixels
Height                                   : 800 pixels
Display aspect ratio                     : 2.40:1
Frame rate mode                          : Constant
Frame rate                               : 23.976 (24000/1001) fps
Color space                              : YUV
Chroma subsampling                       : 4:2:0
Bit depth                                : 8 bits
Scan type                                : Progressive
Bits/(Pixel*Frame)                       : 0.058
Stream size                              : 1.41 GiB (92%)
Title                                    : m1080P - Filmbol.org
Writing library                          : x264 core 155
Default                                  : Yes
Forced                                   : No

Audio
ID                                       : 2
Format                                   : AC-3
Format/Info                              : Audio Coding 3
Mode extension                           : CM (complete main)
Format settings, Endianness              : Big
Codec ID                                 : A_AC3
Duration                                 : 1h 33mn
Bit rate mode                            : Constant
Bit rate                                 : 192 Kbps
Channel(s)                               : 2 channels
Channel positions                        : Front: L R
Sampling rate                            : 48.0 KHz
Frame rate                               : 31.250 fps (1536 spf)
Compression mode                         : Lossy
Stream size                              : 129 MiB (8%)
Title                                    : Türkçe - Filmbol.org
Language                                 : Turkish
Default                                  : Yes
Forced                                   : No



Film Detayları


Hotel Artemis

Hotel Artemis

Hotel Artemis


Film Fragmanı


Film Detayları

Mini 1080P İndir



MixDrop ile indir

Tusfiles ile indir

LetsUpload ile indir

Filmbol'da aşağıdaki linkler sadece üyelere sunulur. Ayrıca bu linklerde link kısaltma servisleri kullanılmaz, linke tek tık ile reklamsız erişirsiniz. Konu'ya yorum yapın ve sayfayı yenileyin. Reklamsız linkler (en az 3 en fazla 5 link) açılmış olacaktır. Not: Filmbol'a üye olmak tamamen ücretsizdir, en az 3 link kuralı 01.07.2019 tarihinden sonraki paylaşımlar için geçerlidir. Ancak çoğu film için en az bir premium link her zaman bulunur.

Mega

Dosyaco

Dosyaupload

Mediafire

Google Drive
 
Cevapla
#2
ben yorum yaptım
 
Cevapla
#3
Harika
 
Cevapla
#4
SÜPER
 
Cevapla
#5
teşekkürler
 
Cevapla
  


Konu ile Alakalı Benzer Konular
Konular Yazar Yorumlar Okunma Son Yorum
Filmin Yayınlanma Tarihi: 2018 Overlord Operasyonu (2018) Türkçe Dublaj BLURAY m1080P İndir BroserBros 3 56 18-08-2019, Saat: 21:53
Son Yorum: auryouq7894
Filmin Yayınlanma Tarihi: 2019 Polar (2019) Türkçe Dublaj BLURAY m1080P İndir BroserBros 3 107 18-08-2019, Saat: 20:28
Son Yorum: Mrt.Nlu
  Entebbe'de 7 Gün (Entebbe) Türkçe Dublaj BLURAY m1080P İndir BroserBros 2 48 16-08-2019, Saat: 15:15
Son Yorum: ahleten
Filmin Yayınlanma Tarihi: 2018 Adaletsiz - Dragged Across Concrete (2018) - Türkçe Dublaj m1080p BluRay İndir NtDTr 0 69 08-08-2019, Saat: 18:52
Son Yorum: NtDTr
Filmin Yayınlanma Tarihi: 2019 The Hard Way (2019) Türkçe Dublaj BLURAY m1080P İndir BroserBros 1 77 01-08-2019, Saat: 15:19
Son Yorum: ahmetyee1

Hızlı Menü:


Şu anda bu konuyu okuyanlar: 1 Ziyaretçi