Filmbol Forum Film İndir 1080P v Hızlı ve Tüylü (Manou the Swift) Türkçe Dublaj BLURAY 1080P İndir
Filmbol'da moderatör olmak ister misiniz? Bizimle iletişime geçmek için tıklayın!
Hızlı ve Tüylü (Manou the Swift) Türkçe Dublaj BLURAY 1080P İndir
BroserBros
Hızlı ve Tüylü (Manou the Swift) Türkçe Dublaj BLURAY 1080P İndir
0
335
  • Derecelendirme: 0/5 - 0 oy
  • 1
  • 2
  • 3
  • 4
  • 5
Konuyu Okuyanlar:1 Ziyaretçi
Şuan Online!
Filmin Yayınlanma Tarihi: 2019 
Şuan Online!
BroserBros Kurucu Admin
*******
Admin

Vizyon Tarihi


20 Eylül 2019

imdb puanı


5,3 / 400

süre


90 dakika

Editör Puanı


5,0

Video Format: Mkv


Matroska (.MKV)

Ses Kodek: AC3


Audio Coding 3 (AC3)

sürüm


x264 | 1080P | BLURAY

Boyutlar


1,48



Hızlı ve Tüylü



Film Detayları

Hızlı ve Tüylü, martı çift tarafından evlat edilen Manou'nun hikayesini konu ediyor. Manou, bir martı çift tarafından evlat edinilen ufak bir kırlangıç olarak Nice'te büyümüştür. Doğasına aykırı olmasına rağmen, nasıl yüzüleceğini, balık tutulacağını ve elbette ailesi gibi nasıl uçabileceğini öğrenmektedir. Ancak iş uçuş okuluna geldiğinde asla bir martı gibi uçamayacağını anlar. Ailesi dışında kalan diğer martılar tarafından da dışlanan Manou, topluluk için önemli olan bir görevi yerine getiremediğinde, martı kolonisinden uzaklaşır ve kendi türünden kuşlarla tanışarak gerçek benliğini keşfetmeye başlar. Bir gün martılar ve kırlangıçlar büyük bir tehlike ile yüz yüze geldiklerinde günün kahramanı Manou olacaktır.

Hızlı ve Tüylü (Manou the Swift) Filmi Imdb'den 400 kişi tarafından oylandı ve 5,3 puan aldı. Bu film için editör puanı 5,0 olarak belirlendi. İyi Seyirler!


Teknik Detaylar


Kod :
General
Unique ID                                : 269005268814843045819746668752777196882 (0xCA6087BDDD2DBE60E4535036D0373552)
Complete name                            : /root/Desktop/4/Hızlı.ve.Tüylü.2019.1080p.BLURAY.x264.TR.Filmbol.mkv
Format                                   : Matroska
Format version                           : Version 4 / Version 2
File size                                : 1.48 GiB
Duration                                 : 1h 28mn
Overall bit rate                         : 2 392 Kbps
Movie name                               : Hızlı ve Tüylü (2019) - Filmbol.org
Encoded date                             : UTC 2020-01-05 02:06:33
Writing application                      : mkvmerge v35.0.0 ('All The Love In The World') 64-bit
Writing library                          : libebml v1.3.9 + libmatroska v1.5.2

Video
ID                                       : 1
Format                                   : AVC
Format/Info                              : Advanced Video Codec
Format profile                           : Main@L4
Format settings, CABAC                   : Yes
Format settings, ReFrames                : 2 frames
Format settings, GOP                     : M=1, N=25
Codec ID                                 : V_MPEG4/ISO/AVC
Duration                                 : 1h 28mn
Bit rate                                 : 2 197 Kbps
Width                                    : 1 920 pixels
Height                                   : 1 080 pixels
Display aspect ratio                     : 16:9
Frame rate mode                          : Constant
Frame rate                               : 24.000 fps
Color space                              : YUV
Chroma subsampling                       : 4:2:0
Bit depth                                : 8 bits
Scan type                                : Progressive
Bits/(Pixel*Frame)                       : 0.044
Stream size                              : 1.36 GiB (92%)
Title                                    : 1080P - Filmbol.org
Language                                 : English
Default                                  : Yes
Forced                                   : No

Audio
ID                                       : 2
Format                                   : AC-3
Format/Info                              : Audio Coding 3
Mode extension                           : CM (complete main)
Format settings, Endianness              : Big
Codec ID                                 : A_AC3
Duration                                 : 1h 28mn
Bit rate mode                            : Constant
Bit rate                                 : 192 Kbps
Channel(s)                               : 2 channels
Channel positions                        : Front: L R
Sampling rate                            : 48.0 KHz
Frame rate                               : 31.250 fps (1536 spf)
Compression mode                         : Lossy
Stream size                              : 122 MiB (8%)
Title                                    : Türkçe - Filmbol.org
Language                                 : Turkish
Default                                  : Yes
Forced                                   : No

Film Detayları


Hızlı ve Tüylü

Hızlı ve Tüylü

Hızlı ve Tüylü


Film Fragmanı


Film Detayları

Mini 1080P İndir



Uptobox ile indir

1Fichier ile indir

1Fichier'den İndiremiyor musun? Tıklayın!


Mega ile indir

MediaFire ile indir



Konu ile Alakalı Benzer Konular
Konular Yazar Yorumlar Okunma Son Yorum
Filmin Yayınlanma Tarihi: 2020
Deathstroke Şövalyeler ve Ejderhalar (Deathstroke Knights & Dragons: The Movie) - 2020 - TR+ORG - 1080P BroserBros 0 13 10 saat önce
Son Yorum: BroserBros
Filmin Yayınlanma Tarihi: 2019
15 Dakika Savaş (L'intervention) - 2019 - TR+ORG - 1080P BroserBros 0 14 11 saat önce
Son Yorum: BroserBros
Filmin Yayınlanma Tarihi: 2020
Sürprizli Gece (The Sleepover) - 2020 - TR+ORG - 1080P BroserBros 0 16 , Saat: 16:19
Son Yorum: BroserBros
Filmin Yayınlanma Tarihi: 2020
Feride (Feride) - 2020 - TR+ORG - 1080P BroserBros 0 44 22-11-2020, Saat: 20:24
Son Yorum: BroserBros
Filmin Yayınlanma Tarihi: 2019
Gel Babacığına (Come to Daddy) - 2019 - TR+ORG - 1080P BroserBros 0 33 22-11-2020, Saat: 17:43
Son Yorum: BroserBros

Hızlı Menü: