Filmbol Forum Film İndir BRRip XviD v Hızlı ve Öfkeli: Hobbs ve Shaw (Fast & Furious) Türkçe Dublaj Brrip Xvid İndir
Mega linklerinin şikayet edilmemesi için global erişime kapatıp sadece yorum yapanlara açıyoruz. Bu linkleri gizleme işlemini mecburen yapıyoruz ve yorum yapmanızın siteye değil size faydası vardır. Teşekürler yazmayı çok görüp, Random/Spam mesajlar atarak Mega linklerini açmaya çalışan kullanıcılara önce süresiz ban, devam ederse IP ban atacağız.
Filmbol'da moderatör olmak ister misiniz? Bizimle iletişime geçmek için tıklayın!
Hızlı ve Öfkeli: Hobbs ve Shaw (Fast & Furious) Türkçe Dublaj Brrip Xvid İndir
BroserBros
Hızlı ve Öfkeli: Hobbs ve Shaw (Fast & Furious) Türkçe Dublaj Brrip Xvid İndir
13
1472
  • Derecelendirme: 0/5 - 0 oy
  • 1
  • 2
  • 3
  • 4
  • 5
Konuyu Okuyanlar:1 Ziyaretçi
Şuan Online!
Filmin Yayınlanma Tarihi: 2019 
WWW
Şuan Online!
BroserBros Kurucu Admin
*******
Admin










Hizli ve Ofkeli Hobs ve Shaw



Teknik Detaylar


Kod :
General
Complete name                            : Hızlı.ve.Öfkeli.Hobbs.ve.Shaw.2019.BRRip.XviD.TR.Filmbol.avi
Format                                   : AVI
Format/Info                              : Audio Video Interleave
File size                                : 1.66 GiB
Duration                                 : 2h 16mn
Overall bit rate                         : 1 736 Kbps

Video
ID                                       : 0
Format                                   : MPEG-4 Visual
Format profile                           : [email protected]
Format settings, BVOP                    : No
Format settings, QPel                    : No
Format settings, GMC                     : No warppoints
Format settings, Matrix                  : Default (H.263)
Codec ID                                 : XVID
Codec ID/Hint                            : XviD
Duration                                 : 2h 16mn
Bit rate                                 : 1 596 Kbps
Width                                    : 720 pixels
Height                                   : 302 pixels
Display aspect ratio                     : 2.40:1
Frame rate                               : 23.976 fps
Color space                              : YUV
Chroma subsampling                       : 4:2:0
Bit depth                                : 8 bits
Scan type                                : Progressive
Compression mode                         : Lossy
Bits/(Pixel*Frame)                       : 0.306
Stream size                              : 1.52 GiB (92%)
Writing library                          : Lavc58.35.100

Audio
ID                                       : 1
Format                                   : MPEG Audio
Format version                           : Version 1
Format profile                           : Layer 3
Mode                                     : Joint stereo
Mode extension                           : MS Stereo
Codec ID                                 : 55
Codec ID/Hint                            : MP3
Duration                                 : 2h 15mn
Bit rate mode                            : Constant
Bit rate                                 : 128 Kbps
Channel(s)                               : 2 channels
Sampling rate                            : 48.0 KHz
Compression mode                         : Lossy
Stream size                              : 124 MiB (7%)
Alignment                                : Aligned on interleaves
Interleave, duration                     : 24 ms (0.58 video frame)

Film Detayları


Hizli ve Ofkeli Hobs ve Shaw

Hizli ve Ofkeli Hobs ve Shaw

Hizli ve Ofkeli Hobs ve Shaw


Film Fragmanı


Film Detayları

Brrip İndir



Uptobox ile indir

DosyaUpload ile indir

Mega linki şuan da gizli. Kullanıma açmak için konuya yorum yapın ve ardından sayfayı yenileyin.

Mega


MediaFire ile indir

Şuan Offine!
Şuan Offine!
sectechno Premium Üye
****

  • Konular11
  • Mesajlar98
  • Rep puanı 20
Teşekkürler BroserBros.Emeğine sağlık,kolay gelsin.İyi çalışmalar.
Şuan Offine!
Şuan Offine!
gece_yagmuru Uzman Üye
**
Uzman Üye

  • Konular0
  • Mesajlar11
  • Rep puanı 0
teşekkürler
Şuan Offine!
Şuan Offine!
cemsav97 Süper Üye
***
Super Üye

  • Konular0
  • Mesajlar46
  • Rep puanı 0
Teşekkürler
Şuan Offine!
Şuan Offine!
haytoki1 Uzman Üye
**
Uzman Üye

  • Konular0
  • Mesajlar18
  • Rep puanı 0
teşekkürler
Şuan Offine!
Şuan Offine!
xmail35 Yeni Üye
*
Üye

  • Konular0
  • Mesajlar1
  • Rep puanı 0
Teşekkürler
Şuan Offine!
Şuan Offine!
MrGunebakan Uzman Üye
**
Uzman Üye

  • Konular0
  • Mesajlar7
  • Rep puanı 0
Teşekkürler
Şuan Offine!
Şuan Offine!
0kyanus Yeni Üye
*
Üye

  • Konular0
  • Mesajlar1
  • Rep puanı 0
Teşekkürler
Şuan Offine!
Şuan Offine!
kadirhan83 Uzman Üye
**
Uzman Üye

  • Konular0
  • Mesajlar14
  • Rep puanı 0
teşekkürler
Şuan Offine!
Şuan Offine!
Bilkom Yeni Üye
*
Üye

  • Konular0
  • Mesajlar2
  • Rep puanı 0
Harika


Konu ile Alakalı Benzer Konular
Konular Yazar Yorumlar Okunma Son Yorum
Filmin Yayınlanma Tarihi: 2019
Uzaydan Gelen Renk (Color Out of Space) - 2019 - TR - BRRip XviD | tt5073642 TheSteeL 0 27 , Saat: 20:57
Son Yorum: TheSteeL
  I Care a Lot (I Care a Lot) - 2020 - TR - BRRip XviD | tt9893250 TheSteeL 0 25 , Saat: 20:51
Son Yorum: TheSteeL
Filmin Yayınlanma Tarihi: 2019
Onur Madalyası (The Last Full Measure) - 2019 - TR - BRRip XviD | tt0783640 TheSteeL 2 80 , Saat: 19:56
Son Yorum: TheSteeL
Filmin Yayınlanma Tarihi: 2014
300: Bir İmparatorluğun Yükselişi (300: Rise of an Empire - 300 Spartalı 2) - 2014 - TR - BRRip XviD BroserBros 2 233 , Saat: 12:54
Son Yorum: Furkan61
Filmin Yayınlanma Tarihi: 2019
Silahlar Fora (Guns Akimbo) - 2019 - TR - BRRip XviD | tt6902676 TheSteeL 0 47 06-03-2021, Saat: 22:06
Son Yorum: TheSteeL

Hızlı Menü: