Filmbol Forum Film İndir BRRip XviD v Hızlı ve Öfkeli: Hobbs ve Shaw (Fast & Furious) Türkçe Dublaj Brrip Xvid İndir
Filmbol'da moderatör olmak ister misiniz? Bizimle iletişime geçmek için tıklayın!
Hızlı ve Öfkeli: Hobbs ve Shaw (Fast & Furious) Türkçe Dublaj Brrip Xvid İndir
BroserBros
Hızlı ve Öfkeli: Hobbs ve Shaw (Fast & Furious) Türkçe Dublaj Brrip Xvid İndir
13
1298
  • Derecelendirme: 0/5 - 0 oy
  • 1
  • 2
  • 3
  • 4
  • 5
Konuyu Okuyanlar:1 Ziyaretçi
Şuan Online!
Filmin Yayınlanma Tarihi: 2019 
Şuan Online!
BroserBros Kurucu Admin
*******
Admin

indirme türü


Bulut + Premium

Vizyon Tarihi


02 Ağustos 2019

Boyutlar


1,66

diller


[TR]

altyazilar


KISIM [Eklenebilir]

Video Format: Avi


Audio Video Interleave (.AVI)

Video Detay


MPEG-4, 1596 Kbps, 1,52GB

imdb puanı


6,5 / 10,0 / 115,000

süre


137 dakika

Ses Kodek: MP3


MPEG-1 Audio Layer III (MP3)

Ses Detay


128 Kbps, 2 Kanal, 124Mb

Editör Puanı


7,0

Genislik Yukseklik


720-302

sürüm


h263 | Brrip Xvid




Hizli ve Ofkeli Hobs ve Shaw


Film Detayları

Hızlı ve Öfkeli serisinin spin-off filmi olan Hızlı ve Öfkeli: Hobbs ve Shaw, insanlığı tehlikeye sokan bir güce karşı birlikte hareket etmek zorunda kalan Hobbs ve Shaw’un hikayesini konu ediyor.Amerika’nın Diplomatik Güvenlik Hizmetlerinin sadık bir ajanı olan Luke Hobbs ile eski bir İngiliz askeri elit ajanı olan Deckard Shaw, yıllar boyu birbirlerini yenmeye çalışsalar da bu kez birlikte hareket etmek zorundadır. İnsanlık, büyük bir biyolojik tehdit ile karşı karşıyadır. Siber genetik ile güçlendirilmiş anarşist Brixton, insanlığın değişmesine neden olabilecek olan biyolojik virüsü ele geçirir. Dünyayı tehlikeye sokan Brixton'ı yenmek zorunda olan iri kıyım kanun adamı Hobbs ile kanunları hiçe sayan Shaw’un güçlerini birleştirip, birlikte mücadele etmekten başka şansı yoktur.

Hızlı ve Öfkeli: Hobbs ve Shaw (Fast & Furious Presents: Hobbs & Shaw) Filmi Imdb'den 115,000 kişi tarafından oylandı ve 6,5 puan aldı. Bu film için editör puanı 7,0 olarak belirlendi. İyi Seyirler!


Teknik Detaylar


Kod :
General
Complete name                            : Hızlı.ve.Öfkeli.Hobbs.ve.Shaw.2019.BRRip.XviD.TR.Filmbol.avi
Format                                   : AVI
Format/Info                              : Audio Video Interleave
File size                                : 1.66 GiB
Duration                                 : 2h 16mn
Overall bit rate                         : 1 736 Kbps

Video
ID                                       : 0
Format                                   : MPEG-4 Visual
Format profile                           : Simple@L5
Format settings, BVOP                    : No
Format settings, QPel                    : No
Format settings, GMC                     : No warppoints
Format settings, Matrix                  : Default (H.263)
Codec ID                                 : XVID
Codec ID/Hint                            : XviD
Duration                                 : 2h 16mn
Bit rate                                 : 1 596 Kbps
Width                                    : 720 pixels
Height                                   : 302 pixels
Display aspect ratio                     : 2.40:1
Frame rate                               : 23.976 fps
Color space                              : YUV
Chroma subsampling                       : 4:2:0
Bit depth                                : 8 bits
Scan type                                : Progressive
Compression mode                         : Lossy
Bits/(Pixel*Frame)                       : 0.306
Stream size                              : 1.52 GiB (92%)
Writing library                          : Lavc58.35.100

Audio
ID                                       : 1
Format                                   : MPEG Audio
Format version                           : Version 1
Format profile                           : Layer 3
Mode                                     : Joint stereo
Mode extension                           : MS Stereo
Codec ID                                 : 55
Codec ID/Hint                            : MP3
Duration                                 : 2h 15mn
Bit rate mode                            : Constant
Bit rate                                 : 128 Kbps
Channel(s)                               : 2 channels
Sampling rate                            : 48.0 KHz
Compression mode                         : Lossy
Stream size                              : 124 MiB (7%)
Alignment                                : Aligned on interleaves
Interleave, duration                     : 24 ms (0.58 video frame)

Film Detayları


Hizli ve Ofkeli Hobs ve Shaw

Hizli ve Ofkeli Hobs ve Shaw

Hizli ve Ofkeli Hobs ve Shaw


Film Fragmanı


Film Detayları

Brrip İndir



Uptobox ile indir

LetsUpload ile indir

DosyaUpload ile indir

Mega ile indir

MediaFire ile indir

Şuan Offine!
Şuan Offine!
sectechno Süper Üye
***
Super Üye

  • Konular9
  • Mesajlar70
  • Rep puanı 0
Teşekkürler BroserBros.Emeğine sağlık,kolay gelsin.İyi çalışmalar.
Şuan Offine!
Şuan Offine!
gece_yagmuru Uzman Üye
**
Uzman Üye

  • Konular0
  • Mesajlar11
  • Rep puanı 0
teşekkürler
Şuan Offine!
Şuan Offine!
cemsav97 Süper Üye
***
Super Üye

  • Konular0
  • Mesajlar36
  • Rep puanı 0
Teşekkürler
Şuan Offine!
Şuan Offine!
haytoki1 Uzman Üye
**
Uzman Üye

  • Konular0
  • Mesajlar18
  • Rep puanı 0
teşekkürler
Şuan Offine!
Şuan Offine!
xmail35 Yeni Üye
*
Üye

  • Konular0
  • Mesajlar1
  • Rep puanı 0
Teşekkürler
Şuan Offine!
Şuan Offine!
MrGunebakan Uzman Üye
**
Uzman Üye

  • Konular0
  • Mesajlar7
  • Rep puanı 0
Teşekkürler
Şuan Offine!
Şuan Offine!
0kyanus Yeni Üye
*
Üye

  • Konular0
  • Mesajlar1
  • Rep puanı 0
Teşekkürler
Şuan Offine!
Şuan Offine!
kadirhan83 Uzman Üye
**
Uzman Üye

  • Konular0
  • Mesajlar14
  • Rep puanı 0
teşekkürler
Şuan Offine!
Şuan Offine!
Bilkom Yeni Üye
*
Üye

  • Konular0
  • Mesajlar2
  • Rep puanı 0
Harika


Konu ile Alakalı Benzer Konular
Konular Yazar Yorumlar Okunma Son Yorum
Filmin Yayınlanma Tarihi: 2019
Luce (Luce) - 2019 - TR - BRRip XviD BroserBros 0 15 8 saat önce
Son Yorum: BroserBros
Filmin Yayınlanma Tarihi: 2020
Aşka İnan (I Still Believe) - 2020 - TR - BRRip XviD BroserBros 0 14 9 saat önce
Son Yorum: BroserBros
Filmin Yayınlanma Tarihi: 2018
Döndüm Ben (Yerli) - 2018 - TR - BRRip XviD BroserBros 0 35 27-11-2020, Saat: 18:40
Son Yorum: BroserBros
Filmin Yayınlanma Tarihi: 2018
Bana Bir Soygun Yaz 2 (Yerli) - 2018 - TR - BRRip XviD BroserBros 0 27 27-11-2020, Saat: 18:26
Son Yorum: BroserBros
Filmin Yayınlanma Tarihi: 2007
Amerikan Pastası 6: Beta Evi (American Pie: Beta House) - 2007 - TR - BRRip XviD BroserBros 2 247 27-11-2020, Saat: 14:31
Son Yorum: tayyib5731

Hızlı Menü: