Filmbol Forum Film İndir 1080P v Hızlı ve Öfkeli: Hobbs ve Shaw (Fast & Furious) Türkçe Dublaj BLURAY m1080P İndir
Filmbol'da moderatör olmak ister misiniz? Bizimle iletişime geçmek için tıklayın!
Hızlı ve Öfkeli: Hobbs ve Shaw (Fast & Furious) Türkçe Dublaj BLURAY m1080P İndir
BroserBros
Hızlı ve Öfkeli: Hobbs ve Shaw (Fast & Furious) Türkçe Dublaj BLURAY m1080P İndir
32
2330
  • Derecelendirme: 4/5 - 1 oy
  • 1
  • 2
  • 3
  • 4
  • 5
Konuyu Okuyanlar:1 Ziyaretçi
Şuan Online!
Filmin Yayınlanma Tarihi: 2019 
Şuan Online!
BroserBros Kurucu Admin
*******
Admin

indirme türü


Bulut + Premium

Vizyon Tarihi


02 Ağustos 2019

Boyutlar


2,37

diller


[TR]

altyazilar


KISIM [Eklenebilir]

Video Format: Mkv


Matroska (.MKV)

Video Detay


MPEG-4, 2100 Kbps, 2,00GB

imdb puanı


6,5 / 10,0 / 115,000

süre


137 dakika

Ses Kodek: AC3


Audio Coding 3 (AC3)

Ses Detay


384 Kbps, 6 Kanal, 373Mb

Editör Puanı


7,0

Genislik Yukseklik


1920-800

sürüm


x264 | 1080P




Hizli ve Ofkeli Hobs ve Shaw


Film Detayları

Hızlı ve Öfkeli serisinin spin-off filmi olan Hızlı ve Öfkeli: Hobbs ve Shaw, insanlığı tehlikeye sokan bir güce karşı birlikte hareket etmek zorunda kalan Hobbs ve Shaw’un hikayesini konu ediyor.Amerika’nın Diplomatik Güvenlik Hizmetlerinin sadık bir ajanı olan Luke Hobbs ile eski bir İngiliz askeri elit ajanı olan Deckard Shaw, yıllar boyu birbirlerini yenmeye çalışsalar da bu kez birlikte hareket etmek zorundadır. İnsanlık, büyük bir biyolojik tehdit ile karşı karşıyadır. Siber genetik ile güçlendirilmiş anarşist Brixton, insanlığın değişmesine neden olabilecek olan biyolojik virüsü ele geçirir. Dünyayı tehlikeye sokan Brixton'ı yenmek zorunda olan iri kıyım kanun adamı Hobbs ile kanunları hiçe sayan Shaw’un güçlerini birleştirip, birlikte mücadele etmekten başka şansı yoktur.

Hızlı ve Öfkeli: Hobbs ve Shaw (Fast & Furious Presents: Hobbs & Shaw) Filmi Imdb'den 115,000 kişi tarafından oylandı ve 6,5 puan aldı. Bu film için editör puanı 7,0 olarak belirlendi. İyi Seyirler!


Teknik Detaylar


Kod :
General
Complete name                            : Hızlı.ve.Öfkeli.Hobbs.ve.Shaw.2019.1080P.BLURAY.x264.TR.Filmbol.mkv
Format                                   : Matroska
Format version                           : Version 4 / Version 2
File size                                : 2.37 GiB
Duration                                 : 2h 16mn
Overall bit rate                         : 2 483 Kbps
Movie name                               : Hızlı ve Öfkeli: Hobs ve Shaw (2019) - Filmbol.org
Encoded date                             : UTC 2019-11-24 17:57:50
Writing application                      : mkvmerge v35.0.0 ('All The Love In The World') 64-bit
Writing library                          : libebml v1.3.9 + libmatroska v1.5.2

Video
ID                                       : 1
Format                                   : AVC
Format/Info                              : Advanced Video Codec
Format profile                           : High@L4.1
Format settings, CABAC                   : Yes
Format settings, ReFrames                : 4 frames
Codec ID                                 : V_MPEG4/ISO/AVC
Duration                                 : 2h 16mn
Bit rate                                 : 2 100 Kbps
Width                                    : 1 920 pixels
Height                                   : 800 pixels
Display aspect ratio                     : 2.40:1
Frame rate mode                          : Constant
Frame rate                               : 23.976 (24000/1001) fps
Color space                              : YUV
Chroma subsampling                       : 4:2:0
Bit depth                                : 8 bits
Scan type                                : Progressive
Bits/(Pixel*Frame)                       : 0.057
Stream size                              : 2.00 GiB (85%)
Title                                    : 1080P - Filmbol.org
Writing library                          : x264 core 158
Default                                  : Yes
Forced                                   : No

Audio
ID                                       : 2
Format                                   : AC-3
Format/Info                              : Audio Coding 3
Mode extension                           : CM (complete main)
Format settings, Endianness              : Big
Codec ID                                 : A_AC3
Duration                                 : 2h 15mn
Bit rate mode                            : Constant
Bit rate                                 : 384 Kbps
Channel(s)                               : 6 channels
Channel positions                        : Front: L C R, Side: L R, LFE
Sampling rate                            : 48.0 KHz
Frame rate                               : 31.250 fps (1536 spf)
Compression mode                         : Lossy
Stream size                              : 373 MiB (15%)
Title                                    : Türkçe - Filmbol.org
Language                                 : Turkish
Default                                  : Yes
Forced                                   : No

Text
ID                                       : 3
Format                                   : UTF-8
Codec ID                                 : S_TEXT/UTF8
Codec ID/Info                            : UTF-8 Plain Text
Duration                                 : 2h 0mn
Bit rate                                 : 0 bps
Count of elements                        : 32
Stream size                              : 877 Bytes (0%)
Title                                    : KISIM
Language                                 : Turkish
Default                                  : Yes
Forced                                   : Yes

Film Detayları


Hizli ve Ofkeli Hobs ve Shaw

Hizli ve Ofkeli Hobs ve Shaw

Hizli ve Ofkeli Hobs ve Shaw


Film Fragmanı


Film Detayları

Mini 1080P İndir



Uptobox ile indir

LetsUpload ile indir

DosyaUpload ile indir

Mega ile indir

MediaFire ile indir

Şuan Offine!
Şuan Offine!
free Uzman Üye
**
Uzman Üye

  • Konular0
  • Mesajlar13
  • Rep puanı 0
bence günde 5 ten sonra bu mesaj gerekmemeli Big Grin
Şuan Offine!
Şuan Offine!
Hellenger28 Uzman Üye
**
Uzman Üye

  • Konular0
  • Mesajlar15
  • Rep puanı 0
Harika bir film
Şuan Offine!
Şuan Offine!
ahmetyee1 Süper Üye
***
Super Üye

  • Konular3
  • Mesajlar54
  • Rep puanı 0
bunu bekliyordum
Şuan Offine!
Şuan Offine!
kexal Uzman Üye
**
Uzman Üye

  • Konular0
  • Mesajlar15
  • Rep puanı 0
Evet harika bir film daha
Şuan Offine!
Şuan Offine!
hakanadiloglu Yeni Üye
*
Üye

  • Konular0
  • Mesajlar1
  • Rep puanı 0
teşekkürler
Şuan Offine!
Şuan Offine!
KrkyTR Yeni Üye
*
Üye

  • Konular0
  • Mesajlar5
  • Rep puanı 0
Güzel
Şuan Offine!
Şuan Offine!
eness.k1408 Yeni Üye
*
Üye

  • Konular0
  • Mesajlar3
  • Rep puanı 0
Güzel
Şuan Offine!
Şuan Offine!
Haylaz53 Uzman Üye
**
Uzman Üye

  • Konular0
  • Mesajlar13
  • Rep puanı 0
At On nymara
Şuan Offine!
Şuan Offine!
discoplis Yeni Üye
*
Üye

  • Konular0
  • Mesajlar2
  • Rep puanı 0
tesekkürler


Konu ile Alakalı Benzer Konular
Konular Yazar Yorumlar Okunma Son Yorum
Filmin Yayınlanma Tarihi: 2019
Ralph ve İnternet (Ralph Breaks the Internet) Türkçe Dublaj BLURAY m1080P İndir BroserBros 15 1,096 21-11-2020, Saat: 18:10
Son Yorum: miyaavc
Filmin Yayınlanma Tarihi: 2018
Venom: Zehirli Öfke (2018) Türkçe Dublaj Bluray m1080P İndir DRMOV 43 4,142 19-11-2020, Saat: 22:42
Son Yorum: Cyberboi84
Filmin Yayınlanma Tarihi: 2007
Harry Potter ve Zümrüdüanka Yoldaşlığı (2007) Türkçe Dublaj BLURAY m1080P İndir BroserBros 16 1,214 17-11-2020, Saat: 18:33
Son Yorum: bllsr
Filmin Yayınlanma Tarihi: 2005
Harry Potter ve Ateş Kadehi (Goblet of Fire) Türkçe Dublaj BLURAY 1080P İndir BroserBros 27 2,370 17-11-2020, Saat: 12:17
Son Yorum: bllsr
Filmin Yayınlanma Tarihi: 2018
Örümcek Adam: Örümcek Evreninde (Spider-Man) Türkçe Dublaj BLURAY m1080P İndir BroserBros 34 2,541 15-11-2020, Saat: 16:06
Son Yorum: enesakkaya7007

Hızlı Menü: